Safety Car usa cookies
Utilizamos cookies propias y de terceros para optimizar nuestros servicios y mejorar tu experiencia, no se utilizarán para recoger información de carácter personal. Necesitamos tu consentimiento para que aceptes nuestras cookies, que podrás eliminar siempre que lo desees.


Calificación:
  • 2 voto(s) - 4 Media
  • 1
  • 2
  • 3
  • 4
  • 5
F1.GP-Monaco.[2011].[HDTV.720p-DXVA].[MULTI].[Whu-Shu]
#1
[Imagen: gp-monaco.jpeg]

[spoiler]Fuente video:
HDTV [Canal ORF1HD].[Emision sin cortes Publicitarios].[720p]
Fuente Audio:
La Sexta [Se monta sobre pista Ac3 para hacer ac3-5.1 Real]
TPA [Se monta sobre pista Ac3 para hacer ac3-5.1 Real]
MarcaTV [Se monta sobre pista Ac3 para hacer ac3-5.1 Real]
Ambiente [Se monta sobre pista Ac3 para hacer ac3-5.1 Real]
Ingles [Comentarios en Ingles del canal BBC]
Aleman [Comentarios en Aleman del canal ORFHD][/spoiler]

Este montaje se hace GRACIAS a:
Whu-Shu
[Captura del canal ORFHD - Catura de Audio "La Sexta" - "Aleman" - "MarcaTV" y Montaje Final]
Zukutru
[Captura de Audio "Ambiente" - "Ingles" - y "Pista Ac3-5.1"]
Compangu
[Captura de Audio "TPA"]

MEDIAINFO:
[SPOILER]
General
Format : Matroska
File size : 4.23 GiB
Duration : 2h 15mn
Overall bit rate : 4 467 Kbps
Encoded date : UTC 2011-06-06 07:52:27
Writing application : mkvmerge v2.2.0 ('Turn It On Again') built on Mar 4 2008 12:58:26
Writing library : libebml v0.7.7 + libmatroska v0.8.1

Video
ID : 1
Format : AVC
Format/Info : Advanced Video Codec
Format profile : High@L4.1
Format settings, CABAC : Yes
Format settings, ReFrames : 4 frames
Codec ID : V_MPEG4/ISO/AVC
Duration : 2h 15mn
Bit rate : 3 052 Kbps
Width : 1 264 pixels
Height : 720 pixels
Display aspect ratio : 16:9
Frame rate : 50.000 fps
Color space : YUV
Chroma subsampling : 4:2:0
Bit depth : 8 bits
Scan type : Progressive
Bits/(Pixel*Frame) : 0.067
Stream size : 2.81 GiB (66%)
Writing library : x264 core 114 r1924 08d04a4
Encoding settings : cabac=1 / ref=3 / deblock=1:0:0 / analyse=0x3:0x113 / me=hex / subme=7 / psy=1 / psy_rd=1.00:0.00 / mixed_ref=1 / me_range=16 / chroma_me=1 / trellis=1 / 8x8dct=1 / cqm=0 / deadzone=21,11 / fast_pskip=1 / chroma_qp_offset=-2 / threads=12 / sliced_threads=0 / nr=0 / decimate=1 / interlaced=0 / constrained_intra=0 / bframes=3 / b_pyramid=2 / b_adapt=1 / b_bias=0 / direct=1 / weightb=1 / open_gop=0 / weightp=2 / keyint=250 / keyint_min=25 / scenecut=40 / intra_refresh=0 / rc_lookahead=40 / rc=2pass / mbtree=1 / bitrate=3052 / ratetol=1.0 / qcomp=0.60 / qpmin=0 / qpmax=69 / qpstep=4 / cplxblur=20.0 / qblur=0.5 / vbv_maxrate=50000 / vbv_bufsize=50000 / nal_hrd=none / ip_ratio=1.40 / aq=1:1.00

Audio #1
ID : 2
Format : AC-3
Format/Info : Audio Coding 3
Mode extension : CM (complete main)
Codec ID : A_AC3
Duration : 2h 15mn
Bit rate mode : Constant
Bit rate : 320 Kbps
Channel(s) : 6 channels
Channel positions : Front: L C R, Side: L R, LFE
Sampling rate : 48.0 KHz
Bit depth : 16 bits
Stream size : 310 MiB (7%)
Title : GP-Monaco_2011_ORF1HD_720p_[Carrera][Sexta]_By_Whu-Shu
Language : Spanish

Audio #2
ID : 3
Format : AC-3
Format/Info : Audio Coding 3
Mode extension : CM (complete main)
Codec ID : A_AC3
Duration : 2h 15mn
Bit rate mode : Constant
Bit rate : 320 Kbps
Channel(s) : 6 channels
Channel positions : Front: L C R, Side: L R, LFE
Sampling rate : 48.0 KHz
Bit depth : 16 bits
Stream size : 310 MiB (7%)
Title : GP-Monaco_2011_ORF1HD_720p_[Carrera][TPA]_By_Whu-Shu
Language : Spanish

Audio #3
ID : 4
Format : AC-3
Format/Info : Audio Coding 3
Mode extension : CM (complete main)
Codec ID : A_AC3
Duration : 2h 15mn
Bit rate mode : Constant
Bit rate : 320 Kbps
Channel(s) : 6 channels
Channel positions : Front: L C R, Side: L R, LFE
Sampling rate : 48.0 KHz
Bit depth : 16 bits
Stream size : 310 MiB (7%)
Title : GP-Monaco_2011_ORF1HD_720p_[Carrera][MarcaTV]_By_Whu-Shu
Language : Spanish

Audio #4
ID : 5
Format : AC-3
Format/Info : Audio Coding 3
Mode extension : CM (complete main)
Codec ID : A_AC3
Duration : 2h 15mn
Bit rate mode : Constant
Bit rate : 320 Kbps
Channel(s) : 6 channels
Channel positions : Front: L C R, Side: L R, LFE
Sampling rate : 48.0 KHz
Bit depth : 16 bits
Stream size : 310 MiB (7%)
Title : GP-Monaco_2011_ORF1HD_720p_[Carrera][Amb]_By_Whu-Shu
Language : English

Audio #5
ID : 6
Format : MPEG Audio
Format version : Version 1
Format profile : Layer 3
Codec ID : A_MPEG/L3
Codec ID/Hint : MP3
Duration : 2h 15mn
Bit rate mode : Constant
Bit rate : 128 Kbps
Channel(s) : 2 channels
Sampling rate : 48.0 KHz
Stream size : 124 MiB (3%)
Title : GP-Monaco_2011_ORF1HD_720p_[Carrera][Eng]_By_Whu-Shu
Language : English
[/SPOILER]

Código:
Calificacion:
http://www.megaupload.com/?d=6YP1AK7I
Carrera:
http://www.megaupload.com/?d=UJLRZQA9

PD: Comentar no cuesta nada
Parece que MEGAUPLOAD esta un poco tocapel...
Si te sale eso de que el archivo no esta ONLINE, o que esta
"Temporalmete Imcomprobable"... hay que darle tiempo.
Se incorporan TRES ARCHIVOS .REV por si falla algun archivo en la descarga...
Solo teneis que ejecutar el primer .rev y este generara los archivos que falten.
Los Archivos estan en cuenta PREMIUM y no seran borrados.
Salu2
[Imagen: eat.gif]
Responder
#2
Gracias, por estos buenísimos aportes...
Responder
#3
Impresionante trabajo una vez más. Muchas gracias por tu esfuerzo.

[Imagen: tiolavara.png]
Alonso: Sus voy a crujir vivooosssss.....
Un imbécil que lee mucho no reduce un ápice su imbecilidad. Si acaso, se convierte en un imbécil leído.
Responder
#4
Parece que JDownloader o Megaupload estan dando problemas con el dlc
Aqui os dejo una posible solucion al problema.
En el JDownloader ir a:
Ajustes > Descargas y Conexion
Buscar el apartado donde pone:
"Si el archivo ya exite" y seleccionar "Auto Renombrar".
Esto, como la misma opcion indica, renombra los rar para que no te diga que ya esta descargado, y de esta manera tendremos todos los rar bajados.
Salu2
[Imagen: thump_6511404solucionjdownloader.jpg]
[Imagen: eat.gif]
Responder
#5
Bajado y rulando.
Muchisimas gracias.
Responder
#6
Añadida la calificacion
Se han Suprimido los Audios Ingles y Aleman
Salu2
[Imagen: eat.gif]
Responder
#7
Enlaces revisados con Jdownloader (actualizado), me dan todos OK
Salu2
[Imagen: eat.gif]
Responder


Salto de foro:


Usuarios navegando en este tema: 2 invitado(s)