Safety Car
F1.GP-Canada.[2011].[HDTV.720p-DXVA].[MULTI].[Whu-Shu] - Versión para impresión

+- Safety Car (http://safety-car.es)
+-- Foro: Formula 1 (http://safety-car.es/forum-1.html)
+--- Foro: Videos (http://safety-car.es/forum-4.html)
+--- Tema: F1.GP-Canada.[2011].[HDTV.720p-DXVA].[MULTI].[Whu-Shu] (/thread-1691.html)



F1.GP-Canada.[2011].[HDTV.720p-DXVA].[MULTI].[Whu-Shu] - Whu-Shu - 18-06-2011

[Imagen: canadacircuit.jpg]

Informacion:
[SPOILER]
Fuente video:
HDTV [Canal ORF1HD].[Emision sin cortes Publicitarios].[720p]
Fuente Audio:
La Sexta [Se monta sobre pista Ac3 para hacer ac3-5.1 Real]
TPA [No contiene este audio, estamos mirando si podemos conseguirlo]
MarcaTV [No se retransmitio la carrera por este canal]
Ambiente [Se monta sobre pista Ac3 para hacer ac3-5.1 Real]
Ingles [Comentarios en Ingles del canal BBC]
Aleman [Comentarios en Aleman del canal ORFHD]
[/SPOILER]

MediaInfo:
[SPOILER]
General
Format : Matroska
File size : 4.14 GiB
Duration : 2h 11mn
Overall bit rate : 4 503 Kbps
Encoded date : UTC 2011-06-15 21:59:37
Writing application : mkvmerge v2.2.0 ('Turn It On Again') built on Mar 4 2008 12:58:26
Writing library : libebml v0.7.7 + libmatroska v0.8.1

Video
ID : 1
Format : AVC
Format/Info : Advanced Video Codec
Format profile : High@L4.1
Format settings, CABAC : Yes
Format settings, ReFrames : 4 frames
Codec ID : V_MPEG4/ISO/AVC
Duration : 2h 11mn
Bit rate : 3 486 Kbps
Width : 1 280 pixels
Height : 720 pixels
Display aspect ratio : 16:9
Frame rate : 50.000 fps
Color space : YUV
Chroma subsampling : 4:2:0
Bit depth : 8 bits
Scan type : Progressive
Bits/(Pixel*Frame) : 0.076
Stream size : 3.13 GiB (76%)
Title : GP-Canada_2011_ORF1HD_720p_[Carrera][MULTI]_By_Whu-Shu
Writing library : x264 core 115 r1995 c1e60b9
Encoding settings : cabac=1 / ref=3 / deblock=1:0:0 / analyse=0x3:0x113 / me=hex / subme=7 / psy=1 / psy_rd=1.00:0.00 / mixed_ref=1 / me_range=16 / chroma_me=1 / trellis=1 / 8x8dct=1 / cqm=0 / deadzone=21,11 / fast_pskip=1 / chroma_qp_offset=-2 / threads=12 / sliced_threads=0 / nr=0 / decimate=1 / interlaced=0 / bluray_compat=0 / constrained_intra=0 / bframes=3 / b_pyramid=2 / b_adapt=1 / b_bias=0 / direct=1 / weightb=1 / open_gop=0 / weightp=2 / keyint=250 / keyint_min=25 / scenecut=40 / intra_refresh=0 / rc_lookahead=40 / rc=2pass / mbtree=1 / bitrate=3486 / ratetol=1.0 / qcomp=0.60 / qpmin=0 / qpmax=69 / qpstep=4 / cplxblur=20.0 / qblur=0.5 / vbv_maxrate=50000 / vbv_bufsize=50000 / nal_hrd=none / ip_ratio=1.40 / aq=1:1.00
Language : Spanish

Audio #1
ID : 2
Format : AC-3
Format/Info : Audio Coding 3
Mode extension : CM (complete main)
Codec ID : A_AC3
Duration : 2h 11mn
Bit rate mode : Constant
Bit rate : 320 Kbps
Channel(s) : 6 channels
Channel positions : Front: L C R, Side: L R, LFE
Sampling rate : 48.0 KHz
Bit depth : 16 bits
Compression mode : Lossy
Stream size : 301 MiB (7%)
Title : GP-Canada_2011_ORF1HD_720p_[Carrera][Sexta]_By_Whu-Shu
Language : Spanish

Audio #2
ID : 3
Format : AC-3
Format/Info : Audio Coding 3
Mode extension : CM (complete main)
Codec ID : A_AC3
Duration : 2h 11mn
Bit rate mode : Constant
Bit rate : 320 Kbps
Channel(s) : 6 channels
Channel positions : Front: L C R, Side: L R, LFE
Sampling rate : 48.0 KHz
Bit depth : 16 bits
Compression mode : Lossy
Stream size : 301 MiB (7%)
Title : GP-Canada_2011_ORF1HD_720p_[Carrera][Amb]_By_Whu-Shu
Language : English

Audio #3
ID : 4
Format : MPEG Audio
Format version : Version 1
Format profile : Layer 3
Codec ID : A_MPEG/L3
Codec ID/Hint : MP3
Duration : 2h 11mn
Bit rate mode : Constant
Bit rate : 256 Kbps
Channel(s) : 2 channels
Sampling rate : 48.0 KHz
Compression mode : Lossy
Stream size : 241 MiB (6%)
Title : GP-Canada_2011_ORF1HD_720p_[Carrera][Eng]_By_Whu-Shu
Language : English

Audio #4
ID : 5
Format : MPEG Audio
Format version : Version 1
Format profile : Layer 3
Mode : Joint stereo
Mode extension : MS Stereo
Codec ID : A_MPEG/L3
Codec ID/Hint : MP3
Duration : 2h 11mn
Bit rate mode : Variable
Bit rate : 114 Kbps
Nominal bit rate : 128 Kbps
Channel(s) : 2 channels
Sampling rate : 48.0 KHz
Compression mode : Lossy
Stream size : 107 MiB (3%)
Title : GP-Canada_2011_ORF1HD_720p_[Carrera][Ger]_By_Whu-Shu
Writing library : LAME3.98r
Encoding settings : -m j -V 4 -q 2 -lowpass 17 --abr 128
Language : German
[/SPOILER]

Código:
Calificacion:
http://www.megaupload.com/?d=WNJJA5EM
Carrera:
http://www.megaupload.com/?d=IWS61LI2
Archivos .Rev:
http://www.megaupload.com/?d=ZSON1US8
Audio TPA
http://www.megaupload.com/?d=96B070UJ

Este montaje se hace GRACIAS a:
Whu-Shu
[Captura del canal ORFHD - Catura de Audio "La Sexta" - "Aleman" - "MarcaTV" y Montaje Final]
Zukutru
[Captura de Audio "Ambiente" - "Ingles" - y "Pista Ac3-5.1"]
Compangu
[Captura de Audio "TPA"]

PD: Comentar no cuesta nada
Parece que MEGAUPLOAD esta un poco tocapel...
Si te sale eso de que el archivo no esta ONLINE, o que esta
"Temporalmete Imcomprobable"... hay que darle tiempo.
Se incorporan TRES ARCHIVOS .REV por si falla algun archivo en la descarga...
Solo teneis que ejecutar el primer .rev y este generara los archivos que falten.
Los Archivos estan en cuenta PREMIUM y no seran borrados.
Salu2


RE: F1.GP-Canada.[2011].[HDTV.720p-DXVA].[MULTI].[Whu-Shu] - CarreraConLluviaPlease - 18-06-2011

No es 1 carrera para recordar y volver a ver la verdad... x)


RE: F1.GP-Canada.[2011].[HDTV.720p-DXVA].[MULTI].[Whu-Shu] - joyjoy - 18-06-2011

muchísimas gracias Whu-Shu por el curre-le que te pegas Smile



RE: F1.GP-Canada.[2011].[HDTV.720p-DXVA].[MULTI].[Whu-Shu] - Whu-Shu - 18-06-2011

Esta carrera no contiene los audios de los canales TPA y MARCATV,
se añadira en estos dias un ripack para añadir esos audios de
forma automatica para vosotros..
Salu2


RE: F1.GP-Canada.[2011].[HDTV.720p-DXVA].[MULTI].[Whu-Shu] - aktimel - 18-06-2011

GRACIAS!!!! Whu-Shu, me la bajaría, pero es que sé, que no voy a tener animos de verla otra vez....
aunque la de Valencia prodrías empezar a subirla, jejej Wink


RE: F1.GP-Canada.[2011].[HDTV.720p-DXVA].[MULTI].[Whu-Shu] - Whu-Shu - 23-06-2011

Añadido el Audio TPA
Para añadirlo seguir las instrucciones del TXT
Salu2


RE: F1.GP-Canada.[2011].[HDTV.720p-DXVA].[MULTI].[Whu-Shu] - Whu-Shu - 13-07-2011

Añadida la calificacion
Salu2


RE: F1.GP-Canada.[2011].[HDTV.720p-DXVA].[MULTI].[Whu-Shu] - Whu-Shu - 13-07-2011

(18-06-2011, 01:37)Whu-Shu escribió: [Imagen: canadacircuit.jpg]

Informacion:
[SPOILER]
Fuente video:
HDTV [Canal ORF1HD].[Emision sin cortes Publicitarios].[720p]
Fuente Audio:
La Sexta [Se monta sobre pista Ac3 para hacer ac3-5.1 Real]
TPA [No contiene este audio, estamos mirando si podemos conseguirlo]
MarcaTV [No se retransmitio la carrera por este canal]
Ambiente [Se monta sobre pista Ac3 para hacer ac3-5.1 Real]
Ingles [Comentarios en Ingles del canal BBC]
Aleman [Comentarios en Aleman del canal ORFHD]
[/SPOILER]

MediaInfo:
[SPOILER]
General
Format : Matroska
File size : 4.14 GiB
Duration : 2h 11mn
Overall bit rate : 4 503 Kbps
Encoded date : UTC 2011-06-15 21:59:37
Writing application : mkvmerge v2.2.0 ('Turn It On Again') built on Mar 4 2008 12:58:26
Writing library : libebml v0.7.7 + libmatroska v0.8.1

Video
ID : 1
Format : AVC
Format/Info : Advanced Video Codec
Format profile : High@L4.1
Format settings, CABAC : Yes
Format settings, ReFrames : 4 frames
Codec ID : V_MPEG4/ISO/AVC
Duration : 2h 11mn
Bit rate : 3 486 Kbps
Width : 1 280 pixels
Height : 720 pixels
Display aspect ratio : 16:9
Frame rate : 50.000 fps
Color space : YUV
Chroma subsampling : 4:2:0
Bit depth : 8 bits
Scan type : Progressive
Bits/(Pixel*Frame) : 0.076
Stream size : 3.13 GiB (76%)
Title : GP-Canada_2011_ORF1HD_720p_[Carrera][MULTI]_By_Whu-Shu
Writing library : x264 core 115 r1995 c1e60b9
Encoding settings : cabac=1 / ref=3 / deblock=1:0:0 / analyse=0x3:0x113 / me=hex / subme=7 / psy=1 / psy_rd=1.00:0.00 / mixed_ref=1 / me_range=16 / chroma_me=1 / trellis=1 / 8x8dct=1 / cqm=0 / deadzone=21,11 / fast_pskip=1 / chroma_qp_offset=-2 / threads=12 / sliced_threads=0 / nr=0 / decimate=1 / interlaced=0 / bluray_compat=0 / constrained_intra=0 / bframes=3 / b_pyramid=2 / b_adapt=1 / b_bias=0 / direct=1 / weightb=1 / open_gop=0 / weightp=2 / keyint=250 / keyint_min=25 / scenecut=40 / intra_refresh=0 / rc_lookahead=40 / rc=2pass / mbtree=1 / bitrate=3486 / ratetol=1.0 / qcomp=0.60 / qpmin=0 / qpmax=69 / qpstep=4 / cplxblur=20.0 / qblur=0.5 / vbv_maxrate=50000 / vbv_bufsize=50000 / nal_hrd=none / ip_ratio=1.40 / aq=1:1.00
Language : Spanish

Audio #1
ID : 2
Format : AC-3
Format/Info : Audio Coding 3
Mode extension : CM (complete main)
Codec ID : A_AC3
Duration : 2h 11mn
Bit rate mode : Constant
Bit rate : 320 Kbps
Channel(s) : 6 channels
Channel positions : Front: L C R, Side: L R, LFE
Sampling rate : 48.0 KHz
Bit depth : 16 bits
Compression mode : Lossy
Stream size : 301 MiB (7%)
Title : GP-Canada_2011_ORF1HD_720p_[Carrera][Sexta]_By_Whu-Shu
Language : Spanish

Audio #2
ID : 3
Format : AC-3
Format/Info : Audio Coding 3
Mode extension : CM (complete main)
Codec ID : A_AC3
Duration : 2h 11mn
Bit rate mode : Constant
Bit rate : 320 Kbps
Channel(s) : 6 channels
Channel positions : Front: L C R, Side: L R, LFE
Sampling rate : 48.0 KHz
Bit depth : 16 bits
Compression mode : Lossy
Stream size : 301 MiB (7%)
Title : GP-Canada_2011_ORF1HD_720p_[Carrera][Amb]_By_Whu-Shu
Language : English

Audio #3
ID : 4
Format : MPEG Audio
Format version : Version 1
Format profile : Layer 3
Codec ID : A_MPEG/L3
Codec ID/Hint : MP3
Duration : 2h 11mn
Bit rate mode : Constant
Bit rate : 256 Kbps
Channel(s) : 2 channels
Sampling rate : 48.0 KHz
Compression mode : Lossy
Stream size : 241 MiB (6%)
Title : GP-Canada_2011_ORF1HD_720p_[Carrera][Eng]_By_Whu-Shu
Language : English

Audio #4
ID : 5
Format : MPEG Audio
Format version : Version 1
Format profile : Layer 3
Mode : Joint stereo
Mode extension : MS Stereo
Codec ID : A_MPEG/L3
Codec ID/Hint : MP3
Duration : 2h 11mn
Bit rate mode : Variable
Bit rate : 114 Kbps
Nominal bit rate : 128 Kbps
Channel(s) : 2 channels
Sampling rate : 48.0 KHz
Compression mode : Lossy
Stream size : 107 MiB (3%)
Title : GP-Canada_2011_ORF1HD_720p_[Carrera][Ger]_By_Whu-Shu
Writing library : LAME3.98r
Encoding settings : -m j -V 4 -q 2 -lowpass 17 --abr 128
Language : German
[/SPOILER]

Código:
Calificacion:
http://www.megaupload.com/?d=WNJJA5EM
Carrera:
http://www.megaupload.com/?d=IWS61LI2
Archivos .Rev:
http://www.megaupload.com/?d=ZSON1US8
Audio TPA
http://www.megaupload.com/?d=96B070UJ

Este montaje se hace GRACIAS a:
Whu-Shu
[Captura del canal ORFHD - Catura de Audio "La Sexta" - "Aleman" - "MarcaTV" y Montaje Final]
Zukutru
[Captura de Audio "Ambiente" - "Ingles" - y "Pista Ac3-5.1"]
Compangu
[Captura de Audio "TPA"]

PD: Comentar no cuesta nada
Parece que MEGAUPLOAD esta un poco tocapel...
Si te sale eso de que el archivo no esta ONLINE, o que esta
"Temporalmete Imcomprobable"... hay que darle tiempo.
Se incorporan TRES ARCHIVOS .REV por si falla algun archivo en la descarga...
Solo teneis que ejecutar el primer .rev y este generara los archivos que falten.
Los Archivos estan en cuenta PREMIUM y no seran borrados.
Salu2