Safety Car usa cookies
Utilizamos cookies propias y de terceros para optimizar nuestros servicios y mejorar tu experiencia, no se utilizarán para recoger información de carácter personal. Necesitamos tu consentimiento para que aceptes nuestras cookies, que podrás eliminar siempre que lo desees.


Calificación:
  • 2 voto(s) - 5 Media
  • 1
  • 2
  • 3
  • 4
  • 5
GP-Brasil_2011_720p_[Carrera][MULTI]_By_Whu-Shu
#1
[Imagen: gp-brasil.jpeg]

Código:
Video:
HDTV [Canal ORF1HD o CNOPT].[Emision sin cortes Publicitarios].[720p]

Audio:
La Sexta  [Se monta sobre pista Ac3 para hacer ac3-5.1 Real]
TPA  [Se monta sobre pista Ac3 para hacer ac3-5.1 Real]
Ambiente  [Se monta sobre pista Ac3 para hacer ac3-5.1 Real]
Ingles  [Comentarios en Ingles del canal BBC]
Aleman  [Comentarios en Aleman del canal ORFHD]

MediaInfo:
Código:
General
Format                                   : Matroska
Format version                           : Version 1
File size                                : 3.45 GiB
Duration                                 : 1h 35mn
Overall bit rate                         : 5 175 Kbps
Encoded date                             : UTC 2011-12-14 08:36:24
Writing application                      : mkvmerge v2.2.0  built on Mar  4 2008 13:20:25
Writing library                          : libebml v0.7.7 + libmatroska v0.8.1

Video
ID                                       : 1
Format                                   : AVC
Format/Info                              : Advanced Video Codec
Format profile                           : High@L4.1
Format settings, CABAC                   : Yes
Format settings, ReFrames                : 4 frames
Codec ID                                 : V_MPEG4/ISO/AVC
Duration                                 : 1h 35mn
Bit rate                                 : 3 695 Kbps
Width                                    : 1 280 pixels
Height                                   : 720 pixels
Display aspect ratio                     : 16:9
Frame rate                               : 50.000 fps
Color space                              : YUV
Chroma subsampling                       : 4:2:0
Bit depth                                : 8 bits
Scan type                                : Progressive
Bits/(Pixel*Frame)                       : 0.080
Stream size                              : 2.40 GiB (70%)
Title                                    : GP-Brasil_2011_720p_[Carrera][MULTI]_By_Whu-Shu
Writing library                          : x264 core 116 r2074 2641b9e
Language                                 : Spanish
Default                                  : Yes
Forced                                   : No

Audio #1
ID                                       : 2
Format                                   : AC-3
Format/Info                              : Audio Coding 3
Mode extension                           : CM (complete main)
Codec ID                                 : A_AC3
Duration                                 : 1h 35mn
Bit rate mode                            : Constant
Bit rate                                 : 448 Kbps
Channel(s)                               : 6 channels
Channel positions                        : Front: L C R, Side: L R, LFE
Sampling rate                            : 48.0 KHz
Bit depth                                : 16 bits
Compression mode                         : Lossy
Stream size                              : 306 MiB (9%)
Title                                    : GP-Brasil_2011_720p_[Carrera][Sexta]_By_Whu-Shu
Language                                 : Spanish
Default                                  : Yes
Forced                                   : No

Audio #2
ID                                       : 3
Format                                   : AC-3
Format/Info                              : Audio Coding 3
Mode extension                           : CM (complete main)
Codec ID                                 : A_AC3
Duration                                 : 1h 35mn
Bit rate mode                            : Constant
Bit rate                                 : 384 Kbps
Channel(s)                               : 6 channels
Channel positions                        : Front: L C R, Side: L R, LFE
Sampling rate                            : 48.0 KHz
Bit depth                                : 16 bits
Compression mode                         : Lossy
Stream size                              : 263 MiB (7%)
Title                                    : GP-Brasil_2011_720p_[Carrera][TPA]_By_Whu-Shu
Language                                 : Spanish
Default                                  : No
Forced                                   : No

Audio #3
ID                                       : 4
Format                                   : AC-3
Format/Info                              : Audio Coding 3
Mode extension                           : CM (complete main)
Codec ID                                 : A_AC3
Duration                                 : 1h 35mn
Bit rate mode                            : Constant
Bit rate                                 : 384 Kbps
Channel(s)                               : 6 channels
Channel positions                        : Front: L C R, Side: L R, LFE
Sampling rate                            : 48.0 KHz
Bit depth                                : 16 bits
Compression mode                         : Lossy
Stream size                              : 263 MiB (7%)
Title                                    : GP-Brasil_2011_720p_[Carrera][Amb]_By_Whu-Shu
Language                                 : English
Default                                  : No
Forced                                   : No

Audio #4
ID                                       : 5
Format                                   : MPEG Audio
Format version                           : Version 1
Format profile                           : Layer 3
Mode                                     : Joint stereo
Mode extension                           : MS Stereo
Codec ID                                 : A_MPEG/L3
Codec ID/Hint                            : MP3
Duration                                 : 1h 35mn
Bit rate mode                            : Constant
Bit rate                                 : 128 Kbps
Channel(s)                               : 2 channels
Sampling rate                            : 48.0 KHz
Compression mode                         : Lossy
Stream size                              : 87.5 MiB (2%)
Title                                    : GP-Brasil_2011_720p_[Carrera][Eng]_By_Whu-Shu
Language                                 : English
Default                                  : No
Forced                                   : No

Audio #5
ID                                       : 6
Format                                   : MPEG Audio
Format version                           : Version 1
Format profile                           : Layer 3
Mode                                     : Joint stereo
Mode extension                           : MS Stereo
Codec ID                                 : A_MPEG/L3
Codec ID/Hint                            : MP3
Duration                                 : 1h 35mn
Bit rate mode                            : Constant
Bit rate                                 : 128 Kbps
Channel(s)                               : 2 channels
Sampling rate                            : 48.0 KHz
Compression mode                         : Lossy
Stream size                              : 87.5 MiB (2%)
Title                                    : GP-Brasil_2011_720p_[Carrera][Ger]_By_Whu-Shu
Language                                 : German
Default                                  : No
Forced                                   : No

Código:
Carrera:
http://www.megaupload.com/?d=WK2C6Y8M
Calificacion:

Quiero agradecer a todo el Equipo su participacion,
sin la cual, no habria sido posible estos montajes:
Zukutru
Compangu
Peseta42

Temporada 2011 Completa:
Código:
27 de Marzo: GP-Australia_2011
Calificacion:
http://www.megaupload.com/?d=6ES5MOEH
Carrera:
http://www.megaupload.com/?d=ESJSIW42

10 abril: GP de Malasia (Sepang)
Calificacion:
http://www.megaupload.com/?d=MGEBJA0C
Carrera:
http://www.megaupload.com/?d=OJ7O00KI

17 abril: GP de China (Shanghai)
Calificacion:
http://www.megaupload.com/?d=CN8R8ROU
Carrera:
http://www.megaupload.com/?d=NMDADB02
Audio "La Sexta" Amplificado
http://www.megaupload.com/?d=XDGJL0FY

8 mayo: GP de Turquía (Istanbul Park)
Calificacion:
http://www.megaupload.com/?d=8JA09FX6
Carrera:
http://www.megaupload.com/?d=M7RVGUNM

22 mayo: GP de España (Montmeló)
Calificacion:
http://www.megaupload.com/?d=5WW4F9HC
Carrera:
http://www.megaupload.com/?d=W9VS4Z41

29 mayo: GP de Mónaco (Montecarlo)
Calificacion:
http://www.megaupload.com/?d=6YP1AK7I
Carrera:
http://www.megaupload.com/?d=UJLRZQA9

12 junio: GP de Canadá (Montreal)
Calificacion:
http://www.megaupload.com/?d=WNJJA5EM
Carrera:
http://www.megaupload.com/?d=IWS61LI2
http://www.megaupload.com/?d=ZSON1US8
Audio TPA:
http://www.megaupload.com/?d=96B070UJ

26 junio: GP de Europa (Valencia Street Circuit)
Calificacion:
http://www.megaupload.com/?d=OLV75B6L
Carrera:
http://www.megaupload.com/?d=DCKU1OOE

10 julio: GP de Gran Bretaña (Silverstone)
Calificacion:
Carrera:
http://www.megaupload.com/?d=94ICDP96

24 julio: GP de Alemania (Nurburgring)
Calificacion:
Carrera:
http://www.megaupload.com/?d=YMND7GBU

31 julio: GP de Hungría (Hungaroring)
Calificacion:
Carrera:
http://www.megaupload.com/?d=HA9CWR70

28 agosto: GP de Bélgica (Spa-Francorchamps)
Calificacion:
Carrera:
http://www.megaupload.com/?d=6PV6LS2E

11 septiembre: GP de Italia (Monza)
Calificacion:
Carrera:
http://www.megaupload.com/?d=FFPEDMLD

25 septiembre: GP de Singapur (Marina Bay)
Calificacion:
Carrera:
http://www.megaupload.com/?d=NYJW1RD9

9 octubre: GP de Japón (Suzuka)
Calificacion:
Carrera:
http://www.megaupload.com/?d=AXMVT6AK

16 octubre: GP de Corea (Yeongam)
Calificacion:
http://www.megaupload.com/?d=C3NDS0OQ
Carrera:
http://www.megaupload.com/?d=QV7KR8EC

30 octubre: GP de India (Jaypee)
Calificacion:
Carrera:
www.megaupload.com/?d=0ERXEBLX

13 noviembre: GP de Abu Dhabi (Yas Marina)
Calificacion:
Carrera:
www.megaupload.com/?d=N8U4NVYR

27 noviembre: GP de Brasil (Interlagos)
Calificacion:
Carrera:
http://www.megaupload.com/?d=WK2C6Y8M

[Imagen: formula1.jpg]

===========================================================
===========================================================

Código:
Desde hace unas semanas, hay algunas carreras y/o calificaiones que
NO SE PUEDEN REPRODUCIR EN ALGUNAS "TV" O "REPRODUCTORES MULTIMEDIAS"

El problema parece que lo probocaba el "MKVMerge" y por eso he vuelto
a una version mucho mas antigua de este programa.

Solucion al problema:

(El proceso dura 4 o 5 minutos por archivo y no se necesita recomprimir nada.)

Minituto: [URL]http://www.megaupload.com/?d=QUTWJ2GS[/URL]

Archivos afectados:
06 - GP-Monaco_2011_ORF1HD_720p_[Calificacion][MULTI]_By_Whu-Shu.mkv
07 - GP-Canada_2011_720p_[Calificacion][MULTI]_By_Whu-Shu.mkv
07 - GP-Canada_2011_ORF1HD_720p_[Carrera][MULTI]_By_Whu-Shu.mkv
08 - GP-Europa_2011_720p_[Calificacion][MULTI]_By_Whu-Shu.mkv
08 - GP-Europa_2011_720p_[Carrera][MULTI]_By_Whu-Shu.mkv
09 - GP-SilverStone_2011_720p_[Carrera][MULTI]_By_Whu-Shu.mkv

Aqui unos samples de prueba:
===========================================================
Sample 1 (Este NO tiene que funcionar en las "TV" o "Reproductores Multimedia")
[URL]http://www.megaupload.com/?d=CU1MHQCU[/URL]
===========================================================
Sample 2 (Este SI tiene que funcionar en las "TV" o "Reproductores Multimedia")
[URL]http://www.megaupload.com/?d=BU1N694K[/URL]
===========================================================

===========================================================
===========================================================

Salu2 y a Tod@as y Feliz Navidad

[Imagen: eat.gif]
Responder
#2
Gracias por el trabajo toda esta temporada. Una recopilacion increible. Un curro fantastico... feliz navidad.
Mis aportaciones: http://safety-car.es/showthread.php?tid=722
Yo vi la victoria de Fernando Alonso en Valencia 2012
[Imagen: alo10.png]
Responder
#3
Muchas gracias Whu_Shu y demas componentes,os habeis pegado una buena currada durante todo el año.
Feliz y prospero año nuevo para todos.
Responder
#4
Muchas gracias por todo!
Responder
#5
thank you very much!!
[Imagen: bannerpubliwebs300x50.jpg?w=604]
[Imagen: 80a92e34b716c7e1a4efde800543978bo.gif]














Responder
#6
es la ostia sois los mejores, calidad extrema bajando todo , un besito de buenas noches, Gracias , un saludo y feliz año

PD. Hi Sr. ______GUAPO1
Responder


Salto de foro:


Usuarios navegando en este tema: 1 invitado(s)