Safety Car usa cookies
Utilizamos cookies propias y de terceros para optimizar nuestros servicios y mejorar tu experiencia, no se utilizarán para recoger información de carácter personal. Necesitamos tu consentimiento para que aceptes nuestras cookies, que podrás eliminar siempre que lo desees.


Calificación:
  • 4 voto(s) - 3.5 Media
  • 1
  • 2
  • 3
  • 4
  • 5
F1.GP-Korea.[2011].[HDTV.720p-DXVA].[MULTI].[Whu-Shu]
#1
Bug 
[Imagen: korea2.jpeg]

Código:
Fuente video:
HDTV [Canal ORF1HD].[Emision sin cortes Publicitarios].[720p]
o
HDTV [Canal CNOPT].[Emision Sin Cortes Publicitarios].[720p]

Fuente Audio:
La Sexta [Se monta sobre pista Ac3 para hacer ac3-5.1 Real]
TPA [Se monta sobre pista Ac3 para hacer ac3-5.1 Real]
Ambiente [Se monta sobre pista Ac3 para hacer ac3-5.1 Real]
Ingles [Comentarios en Ingles del canal BBC]
Aleman [Comentarios en Aleman del canal ORFHD]

Este montaje se hace GRACIAS a:
Whu-Shu
[Captura del canal ORFHD - Catura de Audio "La Sexta" - "Aleman" - y Montaje Final]

Zukutru
[Captura de Audio "Ambiente" - "Ingles" - y "Pista Ac3-5.1"]

Compangu
[Captura de Audio "TPA"]

Peseta42
Se encarga de conseguir los audios que nos puedan faltar


MediaInfo:
Código:
Format                                   : Matroska
Format version                           : Version 1
File size                                : 1.72 GiB
Duration                                 : 1h 3mn
Overall bit rate                         : 3 894 Kbps
Encoded date                             : UTC 2011-10-16 23:45:56
Writing application                      : mkvmerge v2.2.0 ('Turn It On Again') built on Mar  4 2008 13:20:25
Writing library                          : libebml v0.7.7 + libmatroska v0.8.1

Video
ID                                       : 1
Format                                   : AVC
Format/Info                              : Advanced Video Codec
Format profile                           : High@L4.1
Format settings, CABAC                   : Yes
Format settings, ReFrames                : 4 frames
Codec ID                                 : V_MPEG4/ISO/AVC
Duration                                 : 1h 3mn
Bit rate                                 : 2 864 Kbps
Width                                    : 1 280 pixels
Height                                   : 720 pixels
Display aspect ratio                     : 16:9
Frame rate                               : 50.000 fps
Color space                              : YUV
Chroma subsampling                       : 4:2:0
Bit depth                                : 8 bits
Scan type                                : Progressive
Bits/(Pixel*Frame)                       : 0.062
Stream size                              : 1.23 GiB (72%)
Title                                    : GP-Korea_2011_720p_[Calificacion][MULTI]_By_Whu-Shu

Audio #1
ID                                       : 2
Format                                   : AC-3
Format/Info                              : Audio Coding 3
Mode extension                           : CM (complete main)
Codec ID                                 : A_AC3
Duration                                 : 1h 3mn
Bit rate mode                            : Constant
Bit rate                                 : 384 Kbps
Channel(s)                               : 6 channels
Channel positions                        : Front: L C R, Side: L R, LFE
Sampling rate                            : 48.0 KHz
Bit depth                                : 16 bits
Compression mode                         : Lossy
Stream size                              : 174 MiB (10%)
Title                                    : GP-Korea_2011_720p_[Calificacion][Sexta]_By_Whu-Shu
Language                                 : Spanish

Audio #2
ID                                       : 3
Format                                   : AC-3
Format/Info                              : Audio Coding 3
Mode extension                           : CM (complete main)
Codec ID                                 : A_AC3
Duration                                 : 1h 3mn
Bit rate mode                            : Constant
Bit rate                                 : 384 Kbps
Channel(s)                               : 6 channels
Channel positions                        : Front: L C R, Side: L R, LFE
Sampling rate                            : 48.0 KHz
Bit depth                                : 16 bits
Compression mode                         : Lossy
Stream size                              : 174 MiB (10%)
Title                                    : GP-Korea_2011_720p_[Calificacion][Amb]_By_Whu-Shu
Language                                 : English

Audio #3
ID                                       : 4
Format                                   : MPEG Audio
Format version                           : Version 1
Format profile                           : Layer 3
Mode                                     : Joint stereo
Mode extension                           : MS Stereo
Codec ID                                 : A_MPEG/L3
Codec ID/Hint                            : MP3
Duration                                 : 1h 3mn
Bit rate mode                            : Constant
Bit rate                                 : 128 Kbps
Channel(s)                               : 2 channels
Sampling rate                            : 48.0 KHz
Compression mode                         : Lossy
Stream size                              : 57.9 MiB (3%)
Title                                    : GP-Korea_2011_720p_[Calificacion][Eng]_By_Whu-Shu
Language                                 : English

Audio #4
ID                                       : 5
Format                                   : MPEG Audio
Format version                           : Version 1
Format profile                           : Layer 3
Mode                                     : Joint stereo
Mode extension                           : MS Stereo
Codec ID                                 : A_MPEG/L3
Codec ID/Hint                            : MP3
Duration                                 : 1h 3mn
Bit rate mode                            : Constant
Bit rate                                 : 128 Kbps
Channel(s)                               : 2 channels
Sampling rate                            : 48.0 KHz
Compression mode                         : Lossy
Stream size                              : 57.9 MiB (3%)
Title                                    : GP-Korea_2011_720p_[Calificacion][Ger]_By_Whu-Shu
Language                                 : German


Código:
Calificacion:
http://www.megaupload.com/?d=C3NDS0OQ
Carrera:
http://www.megaupload.com/?d=QV7KR8EC
PD: Comentar no cuesta nada

Los Archivos estan en cuenta PREMIUM (MEGAUPLOAD) y (FileServe).
El primer .rar solo estara disponible en FileServe, esto es debido a que
los servidores no son gratuitos e intentamos no tener que poner de nuestro dinero
para poder ofrecer la temporada 2012...
(No queremos sacar dinero por este trabajo, tan solo no poner de nuestro bolsillo)
No pidais que se suba totalmente a MU, ya que no se hara, y tampoco se da permiso
a terceros para poder resubirla y/o cambiar los links de descarga y asi aprovecharse
de todo nuestro esfuerzo para daros la F1 como nadie la da por internet.
Otra razon por la que cambiare de servidor es porque MEGAUPLOAD, despues de dos años
posteando y acumulando puntos para poder canjearlos por meses gratis, a decidido
sin previo aviso, rescindir ese servicio y ahora no hay puntos que canjear
por nada... asi que los puntos de 2 años de trabajo han desaparecido...

Por otra parte, si se da permiso a cualquiera que (previamente poniendose en contacto
con nosotros), quiera postear los mismos enlaces en cualquier otra pagina.
Siempre haciendo referencia a los que hacemos este trabajo para vosotros.

NUEVA INCORPORACION EN EL GRUPO
Peseta42
Se encarga de conseguir los audios que nos puedan faltar

==================================================================================

Salu2 y a Disfrutar

PD: El MediaInfo es de la calificacion
La carrera contara con mas Bitrate y el Audio "TPA"
[Imagen: eat.gif]
Responder
#2
Añadida la carrera
Salu2
[Imagen: eat.gif]
Responder
#3
Sois unos maquinas,muchas gracias.....
Saluditos......................
Responder
#4
Muchas gracias por este gran trabajo. Que nunca se corte!!!
Saludos
Responder
#5
con lo k kuesra encontare las carrerasi integras por internet. tenerlas aki es una maravilla
[Imagen: bannerpubliwebs300x50.jpg?w=604]
[Imagen: 80a92e34b716c7e1a4efde800543978bo.gif]














Responder
#6
En este formato que ofrece Whu-Shu no he visto nada igual en toda la red porque es 720p nativo mientras que los demas son 1080i nativos convertidos a 720p, creo que ese canal austriaco es el unico que transmite la Formula 1 en 720p. Pero si quieres bajarte las carreras realmente rapido te recomiendo que aprendas un poco de ruso y las bajes en rutracker, en serio, nunca me he bajado una carrera tan rapido como ahi, sin exagerar me he llegado a bajar carreras en hd de unos 4.2 gb en unos 20 minutos (los 50m de ono ayudan).
[Imagen: avatsc.jpg]
M. Brundle: "Alonso es como un mago, el saca algo del sombrero cuando no hay nada dentro."
Responder
#7
Excelente trabajo Whu-Shu , gracias por vuestro esfuerzo.
Mis aportaciones: http://safety-car.es/showthread.php?tid=722
Yo vi la victoria de Fernando Alonso en Valencia 2012
[Imagen: alo10.png]
Responder


Salto de foro:


Usuarios navegando en este tema: 1 invitado(s)