Safety Car usa cookies
Utilizamos cookies propias y de terceros para optimizar nuestros servicios y mejorar tu experiencia, no se utilizarán para recoger información de carácter personal. Necesitamos tu consentimiento para que aceptes nuestras cookies, que podrás eliminar siempre que lo desees.


Calificación:
  • 3 voto(s) - 3 Media
  • 1
  • 2
  • 3
  • 4
  • 5
F1.GP-SilverStone.[2011].[HDTV.720p-DXVA].[MULTI].[Whu-Shu]
#1
Thumbs Up 
[Imagen: gp-silverstone-formula-1-2009.jpg]

[spoiler]
Fuente video:
HDTV [Canal ORF1HD].[Emision sin cortes Publicitarios].[720p]
o
HDTV [Canal CNOPT].[Emision Sin Cortes Publicitarios].[720p]

Fuente Audio:
La Sexta [Se monta sobre pista Ac3 para hacer ac3-5.1 Real]
TPA [Se monta sobre pista Ac3 para hacer ac3-5.1 Real]
Ambiente [Se monta sobre pista Ac3 para hacer ac3-5.1 Real]
Ingles [Comentarios en Ingles del canal BBC]
Aleman [Comentarios en Aleman del canal ORFHD]
[/spoiler]

Este montaje se hace GRACIAS a:
Whu-Shu
[Captura del canal ORFHD - Catura de Audio "La Sexta" - "Aleman" - y Montaje Final]
Zukutru
[Captura de Audio "Ambiente" - "Ingles" - y "Pista Ac3-5.1"]
Compangu
[Captura de Audio "TPA"]


MediaInfo:
[spoiler]
General
Format : Matroska
Format version : Version 2
File size : 3.56 GiB
Duration : 1h 43mn
Overall bit rate : 4 912 Kbps
Encoded date : UTC 2011-07-13 13:58:44
Writing application : mkvmerge v4.8.0 ('I Got The...') creado el May 24 2011 03:12:58
Writing library : libebml v1.2.0 + libmatroska v1.1.0

Video
ID : 1
Format : AVC
Format/Info : Advanced Video Codec
Format profile : High@L4.1
Format settings, CABAC : Yes
Format settings, ReFrames : 4 frames
Muxing mode : Header stripping
Codec ID : V_MPEG4/ISO/AVC
Duration : 1h 43mn
Bit rate : 3 695 Kbps
Width : 1 280 pixels
Height : 720 pixels
Display aspect ratio : 16:9
Frame rate : 50.000 fps
Color space : YUV
Chroma subsampling : 4:2:0
Bit depth : 8 bits
Scan type : Progressive
Bits/(Pixel*Frame) : 0.080
Stream size : 2.61 GiB (73%)
Title : GP-SilverStone_2011_720p_[Carrera][MULTI]_By_Whu-Shu
Writing library : x264 core 115 r1995 c1e60b9
Encoding settings : cabac=1 / ref=3 / deblock=1:0:0 / analyse=0x3:0x113 / me=hex / subme=7 / psy=1 / psy_rd=1.00:0.00 / mixed_ref=1 / me_range=16 / chroma_me=1 / trellis=1 / 8x8dct=1 / cqm=0 / deadzone=21,11 / fast_pskip=1 / chroma_qp_offset=-2 / threads=12 / sliced_threads=0 / nr=0 / decimate=1 / interlaced=0 / bluray_compat=0 / constrained_intra=0 / bframes=3 / b_pyramid=2 / b_adapt=1 / b_bias=0 / direct=1 / weightb=1 / open_gop=0 / weightp=2 / keyint=250 / keyint_min=25 / scenecut=40 / intra_refresh=0 / rc_lookahead=40 / rc=2pass / mbtree=1 / bitrate=3695 / ratetol=1.0 / qcomp=0.60 / qpmin=0 / qpmax=69 / qpstep=4 / cplxblur=20.0 / qblur=0.5 / vbv_maxrate=50000 / vbv_bufsize=50000 / nal_hrd=none / ip_ratio=1.40 / aq=1:1.00
Language : Spanish

Audio #1
ID : 2
Format : AC-3
Format/Info : Audio Coding 3
Mode extension : CM (complete main)
Muxing mode : Header stripping
Codec ID : A_AC3
Duration : 1h 43mn
Bit rate mode : Constant
Bit rate : 320 Kbps
Channel(s) : 6 channels
Channel positions : Front: L C R, Side: L R, LFE
Sampling rate : 48.0 KHz
Bit depth : 16 bits
Compression mode : Lossy
Stream size : 238 MiB (7%)
Title : GP-SilverStone_2011_720p_[Carrera][Sexta]_By_Whu-Shu
Language : Spanish

Audio #2
ID : 3
Format : AC-3
Format/Info : Audio Coding 3
Mode extension : CM (complete main)
Muxing mode : Header stripping
Codec ID : A_AC3
Duration : 1h 43mn
Bit rate mode : Constant
Bit rate : 320 Kbps
Channel(s) : 6 channels
Channel positions : Front: L C R, Side: L R, LFE
Sampling rate : 48.0 KHz
Bit depth : 16 bits
Compression mode : Lossy
Stream size : 238 MiB (7%)
Title : GP-SilverStone_2011_720p_[Carrera][TPA]_By_Whu-Shu
Language : Spanish

Audio #3
ID : 4
Format : AC-3
Format/Info : Audio Coding 3
Mode extension : CM (complete main)
Muxing mode : Header stripping
Codec ID : A_AC3
Duration : 1h 43mn
Bit rate mode : Constant
Bit rate : 320 Kbps
Channel(s) : 6 channels
Channel positions : Front: L C R, Side: L R, LFE
Sampling rate : 48.0 KHz
Bit depth : 16 bits
Compression mode : Lossy
Stream size : 238 MiB (7%)
Title : GP-SilverStone_2011_720p_[Carrera][Amb]_By_Whu-Shu
Language : English

Audio #4
ID : 5
Format : MPEG Audio
Format version : Version 1
Format profile : Layer 3
Muxing mode : Header stripping
Codec ID : A_MPEG/L3
Codec ID/Hint : MP3
Duration : 1h 43mn
Bit rate mode : Constant
Bit rate : 128 Kbps
Channel(s) : 2 channels
Sampling rate : 48.0 KHz
Compression mode : Lossy
Stream size : 95.0 MiB (3%)
Title : GP-SilverStone_2011_720p_[Carrera][Eng]_By_Whu-Shu
Language : English

Audio #5
ID : 6
Format : MPEG Audio
Format version : Version 1
Format profile : Layer 3
Muxing mode : Header stripping
Codec ID : A_MPEG/L3
Codec ID/Hint : MP3
Duration : 1h 43mn
Bit rate mode : Constant
Bit rate : 128 Kbps
Channel(s) : 2 channels
Sampling rate : 48.0 KHz
Compression mode : Lossy
Stream size : 95.0 MiB (3%)
Title : GP-SilverStone_2011_720p_[Carrera][Ger]_By_Whu-Shu
Language : German
[/spoiler]


Código:
Calificacion:
http://www.megaupload.com/?d=IBXZM5QG
Carrera:
http://www.megaupload.com/?d=94ICDP96


PD: Comentar no cuesta nada
Parece que MEGAUPLOAD esta un poco tocapelotas...
Si te sale eso de que el archivo no esta ONLINE, o que esta
"Temporalmete Imcomprobable", hay que darle tiempo.

Se incorporan TRES ARCHIVOS .REV por si falla algun archivo en la descarga.
[Solo teneis que ejecutar el primer .rev y este generara los archivos que falten]

Los Archivos estan en cuenta PREMIUM y no seran borrados.

==================================================================================

El canal "MarcaTV" a decidido no seguir con los comentarios de Javier Rubio y Andy Soucek.
En su lugar ponen la repeticion de la carrera con los comentarios de "La Sexta".
Es una lastima, ya que con Javier Rubio y Andy Soucek, teniamos comentarios de dos profesionales
y teniamos distintos puntos de vista.
Los de marca podian dar marcha atras a esa decision y seguir como antes.

==================================================================================

Salu2 y a Disfrutar
[Imagen: eat.gif]
Responder
#2
Gran trabajo...

Pero todavía no he podido hacerme con ninguna de las carreras... ¿muy complicado, no? Un formato .avi, o .mpg...
Responder
#3
El formato es .mkv
Es asi por que es HD 720p
Mucho mejor calidad que los .avi o .mpg
bajate los codec KLitle codec pack para poder reproducirlos sin problemas en en PC.
Los reproductores multimedia tienen que poder reproducir .mkv para poder verlos.
Salu2
[Imagen: eat.gif]
Responder
#4
Gracias Whu-Shu Wink
#LoMejorEstaPorLlegar 
Responder
#5
me sale un archivo de 17kb .dlc , que se hace con eso?
Disfruto del espectáculo de Fernando en pista, gane o no el campeonato, y cuando lo gana se celebra por todo lo alto, no me gusta verlo perder, pero no me hacen infeliz malos resultados deportivos, en la vida hay cosas mucho mas importantes.
Juego, ordena las palabras: de - F1 - la - basura - la - Charlie W - es
Responder
#6
Se utiliza el programa JDownloader para abrir ese .dlc
El programa es gratuito y lo encontraras en su pagina oficial.
La carrera pesa 4GB
Salu2
[Imagen: eat.gif]
Responder
#7
Como siempre, muchas gracias por el aporte. Una carrera para NO olvidar!!!
Saludos
Responder
#8
no me deja verlo donde estan esoso codes y como se meten !! saludos gracias muy buena
Responder
#9
muchas gracias Whu-Shu ,vaya currada Smile
Responder
#10
Muchas gracias Whu-Shu, un gran trabajo. Desde donde vivo no puedo ver las carreras con comentarios en español ni por la web de La Sexta. Gracias.

[Imagen: tiolavara.png]
Alonso: Sus voy a crujir vivooosssss.....
Un imbécil que lee mucho no reduce un ápice su imbecilidad. Si acaso, se convierte en un imbécil leído.
Responder


Salto de foro:


Usuarios navegando en este tema: 1 invitado(s)