Safety Car
GP-Abu-Dhabi_2011_720p_[Carrera][MULTI]_By_Whu-Shu - Versión para impresión

+- Safety Car (http://safety-car.es)
+-- Foro: Formula 1 (http://safety-car.es/forum-1.html)
+--- Foro: Videos (http://safety-car.es/forum-4.html)
+--- Tema: GP-Abu-Dhabi_2011_720p_[Carrera][MULTI]_By_Whu-Shu (/thread-2416.html)



GP-Abu-Dhabi_2011_720p_[Carrera][MULTI]_By_Whu-Shu - Whu-Shu - 18-12-2011

[center][Imagen: 17.jpg][/center]

MediaInfo
[spoiler]General
Format : Matroska
Format version : Version 1
File size : 3.97 GiB
Duration : 1h 43mn
Overall bit rate : 5 488 Kbps
Encoded date : UTC 2011-12-15 01:45:29
Writing application : mkvmerge v2.2.0 ('Turn It On Again') built on Mar 4 2008 13:20:25
Writing library : libebml v0.7.7 + libmatroska v0.8.1

Video
ID : 1
Format : AVC
Format/Info : Advanced Video Codec
Format profile : High@L4.1
Format settings, CABAC : Yes
Format settings, ReFrames : 4 frames
Codec ID : V_MPEG4/ISO/AVC
Duration : 1h 43mn
Bit rate : 3 971 Kbps
Width : 1 280 pixels
Height : 720 pixels
Display aspect ratio : 16:9
Frame rate : 50.000 fps
Color space : YUV
Chroma subsampling : 4:2:0
Bit depth : 8 bits
Scan type : Progressive
Bits/(Pixel*Frame) : 0.086
Stream size : 2.88 GiB (72%)
Title : GP-Abu-Dhabi_2011_720p_[Carrera][MULTI]_By_Whu-Shu
Language : Spanish
Default : Yes
Forced : No

Audio #1
ID : 2
Format : AC-3
Format/Info : Audio Coding 3
Mode extension : CM (complete main)
Codec ID : A_AC3
Duration : 1h 43mn
Bit rate mode : Constant
Bit rate : 384 Kbps
Channel(s) : 6 channels
Channel positions : Front: L C R, Side: L R, LFE
Sampling rate : 48.0 KHz
Bit depth : 16 bits
Compression mode : Lossy
Stream size : 285 MiB (7%)
Title : GP-Abu-Dhabi_2011_720p_[Carrera][Sexta]_By_Whu-Shu
Language : Spanish
Default : Yes
Forced : No

Audio #2
ID : 3
Format : AC-3
Format/Info : Audio Coding 3
Mode extension : CM (complete main)
Codec ID : A_AC3
Duration : 1h 43mn
Bit rate mode : Constant
Bit rate : 384 Kbps
Channel(s) : 6 channels
Channel positions : Front: L C R, Side: L R, LFE
Sampling rate : 48.0 KHz
Bit depth : 16 bits
Compression mode : Lossy
Stream size : 285 MiB (7%)
Title : GP-Abu-Dhabi_2011_720p_[Carrera][TPA]_By_Whu-Shu
Language : Spanish
Default : No
Forced : No

Audio #3
ID : 4
Format : AC-3
Format/Info : Audio Coding 3
Mode extension : CM (complete main)
Codec ID : A_AC3
Duration : 1h 43mn
Bit rate mode : Constant
Bit rate : 384 Kbps
Channel(s) : 6 channels
Channel positions : Front: L C R, Side: L R, LFE
Sampling rate : 48.0 KHz
Bit depth : 16 bits
Compression mode : Lossy
Stream size : 285 MiB (7%)
Title : GP-Abu-Dhabi_2011_720p_[Carrera][Amb]_By_Whu-Shu
Language : English
Default : No
Forced : No

Audio #4
ID : 5
Format : MPEG Audio
Format version : Version 1
Format profile : Layer 3
Mode : Joint stereo
Mode extension : MS Stereo
Codec ID : A_MPEG/L3
Codec ID/Hint : MP3
Duration : 1h 43mn
Bit rate mode : Constant
Bit rate : 128 Kbps
Channel(s) : 2 channels
Sampling rate : 48.0 KHz
Compression mode : Lossy
Stream size : 94.9 MiB (2%)
Title : GP-Abu-Dhabi_2011_720p_[Carrera][Eng]_By_Whu-Shu
Language : English
Default : No
Forced : No

Audio #5
ID : 6
Format : MPEG Audio
Format version : Version 1
Format profile : Layer 3
Mode : Joint stereo
Mode extension : MS Stereo
Codec ID : A_MPEG/L3
Codec ID/Hint : MP3
Duration : 1h 43mn
Bit rate mode : Constant
Bit rate : 128 Kbps
Channel(s) : 2 channels
Sampling rate : 48.0 KHz
Compression mode : Lossy
Stream size : 94.9 MiB (2%)
Title : GP-Abu-Dhabi_2011_720p_[Carrera][Ger]_By_Whu-Shu
Language : German
Default : No
Forced : No[/spoiler]

PD: Comentar no cuesta nada

No se da permiso a terceros para poder resubirla y/o cambiar los links
de descarga y asi aprovecharse de todo nuestro esfuerzo.
Por otra parte, si se da permiso a cualquiera que
(previamente poniendose en contacto con nosotros),
quiera postear los mismos enlaces en cualquier otra pagina.
Siempre haciendo referencia a los que hacemos este trabajo para vosotros.

Si algun enlace de MU, dice eso de "Temporalmente Incomprobable", bajar el correspondiente
archivo de FileServe, ya que el archivo esta en MU pero no esta activado.
Eso es cosa de MU y no se puede hacer nada al respecto.

==================================================
==================================================

[Imagen: fileserve+premium+account.png]
[Imagen: megaupload.png]
Código:
www.megaupload.com/?d=N8U4NVYR

==================================================
==================================================

Salu2 a tod@s


RE: GP-Abu-Dhabi_2011_720p_[Carrera][MULTI]_By_Whu-Shu - david - 18-12-2011

Gracias!