Safety Car
F1.GP-India.[2011].[HDTV.720p-DXVA].[MULTI].[Whu-Shu] - Versión para impresión

+- Safety Car (http://safety-car.es)
+-- Foro: Formula 1 (http://safety-car.es/forum-1.html)
+--- Foro: Videos (http://safety-car.es/forum-4.html)
+--- Tema: F1.GP-India.[2011].[HDTV.720p-DXVA].[MULTI].[Whu-Shu] (/thread-2410.html)



F1.GP-India.[2011].[HDTV.720p-DXVA].[MULTI].[Whu-Shu] - Whu-Shu - 16-12-2011

[center][Imagen: circuito-gp-india.jpg][/center]

MediaInfo
[spoiler]
General
Format : Matroska
Format version : Version 1
File size : 3.45 GiB
Duration : 1h 36mn
Overall bit rate : 5 111 Kbps
Encoded date : UTC 2011-12-14 01:18:22
Writing application : mkvmerge v2.2.0 ('Turn It On Again')
Writing library : libebml v0.7.7 + libmatroska v0.8.1

Video
ID : 1
Format : AVC
Format/Info : Advanced Video Codec
Format profile : High@L4.1
Format settings, CABAC : Yes
Format settings, ReFrames : 4 frames
Codec ID : V_MPEG4/ISO/AVC
Duration : 1h 36mn
Bit rate : 3 695 Kbps
Width : 1 280 pixels
Height : 720 pixels
Display aspect ratio : 16:9
Frame rate : 50.000 fps
Color space : YUV
Chroma subsampling : 4:2:0
Bit depth : 8 bits
Scan type : Progressive
Bits/(Pixel*Frame) : 0.080
Stream size : 2.43 GiB (70%)
Title : 17 - GP-India_2011_720p_[Carrera][MULTI]_By_Whu-Shu
Writing library : x264 core 116 r2074 2641b9e
Language : Spanish
Default : Yes
Forced : No

Audio #1
ID : 2
Format : AC-3
Format/Info : Audio Coding 3
Mode extension : CM (complete main)
Codec ID : A_AC3
Duration : 1h 36mn
Bit rate mode : Constant
Bit rate : 384 Kbps
Channel(s) : 6 channels
Channel positions : Front: L C R, Side: L R, LFE
Sampling rate : 48.0 KHz
Bit depth : 16 bits
Compression mode : Lossy
Stream size : 266 MiB (8%)
Title : 17 - GP-India_2011_720p_[Carrera][Sexta]_By_Whu-Shu
Language : Spanish
Default : Yes
Forced : No

Audio #2
ID : 3
Format : AC-3
Format/Info : Audio Coding 3
Mode extension : CM (complete main)
Codec ID : A_AC3
Duration : 1h 36mn
Bit rate mode : Constant
Bit rate : 384 Kbps
Channel(s) : 6 channels
Channel positions : Front: L C R, Side: L R, LFE
Sampling rate : 48.0 KHz
Bit depth : 16 bits
Compression mode : Lossy
Stream size : 266 MiB (8%)
Title : 17 - GP-India_2011_720p_[Carrera][TPA]_By_Whu-Shu
Language : Spanish
Default : No
Forced : No

Audio #3
ID : 4
Format : AC-3
Format/Info : Audio Coding 3
Mode extension : CM (complete main)
Codec ID : A_AC3
Duration : 1h 36mn
Bit rate mode : Constant
Bit rate : 384 Kbps
Channel(s) : 6 channels
Channel positions : Front: L C R, Side: L R, LFE
Sampling rate : 48.0 KHz
Bit depth : 16 bits
Compression mode : Lossy
Stream size : 266 MiB (8%)
Title : 17 - GP-India_2011_720p_[Carrera][Amb]_By_Whu-Shu
Language : English
Default : No
Forced : No

Audio #4
ID : 5
Format : MPEG Audio
Format version : Version 1
Format profile : Layer 3
Mode : Joint stereo
Mode extension : MS Stereo
Codec ID : A_MPEG/L3
Codec ID/Hint : MP3
Duration : 1h 36mn
Bit rate mode : Constant
Bit rate : 128 Kbps
Channel(s) : 2 channels
Sampling rate : 48.0 KHz
Compression mode : Lossy
Stream size : 88.6 MiB (3%)
Title : 17 - GP-India_2011_720p_[Carrera][Eng]_By_Whu-Shu
Language : English
Default : No
Forced : No

Audio #5
ID : 6
Format : MPEG Audio
Format version : Version 1
Format profile : Layer 3
Mode : Joint stereo
Mode extension : MS Stereo
Codec ID : A_MPEG/L3
Codec ID/Hint : MP3
Duration : 1h 36mn
Bit rate mode : Constant
Bit rate : 128 Kbps
Channel(s) : 2 channels
Sampling rate : 48.0 KHz
Compression mode : Lossy
Stream size : 88.6 MiB (3%)
Title : 17 - GP-India_2011_720p_[Carrera][Ger]_By_Whu-Shu
Language : German
Default : No
Forced : No
[/Spoiler]

PD: Comentar no cuesta nada

No se da permiso a terceros para poder resubirla y/o cambiar los links
de descarga y asi aprovecharse de todo nuestro esfuerzo.
Por otra parte, si se da permiso a cualquiera que
(previamente poniendose en contacto con nosotros),
quiera postear los mismos enlaces en cualquier otra pagina.
Siempre haciendo referencia a los que hacemos este trabajo para vosotros.

==================================================
==================================================
[Imagen: megaupload1.png]
[Imagen: fileserve+premium+account.png]
Código:
17 - GP-India_2011.[Carrera][MU-FS].dlc
www.megaupload.com/?d=0ERXEBLX
==================================================
==================================================

Salu2 a tod@s


RE: F1.GP-India.[2011].[HDTV.720p-DXVA].[MULTI].[Whu-Shu] - Endplate - 16-12-2011

Hola Whu-Shu.

Antes de nada agradecerte (o agradeceros) todo el curro que te pegas (u os pegáis) para ofrecernos estos vídeos de las carreras en HD, sin anuncios y con varios audios para elegir. Eres un crack!!!

Quería comentarte que he intentado descargar los enlaces .dlc para las carreras de Turkía y Mónaco, y me dice que los archivos no existen. Tan sólo es por si era posible que vieras si pasa algo.

Muchas gracias y un saludo!


RE: F1.GP-India.[2011].[HDTV.720p-DXVA].[MULTI].[Whu-Shu] - Whu-Shu - 16-12-2011

Enlaces de turquia y Monaco 2011 revisados con Jdownloader (actualizado), me dan todos OK
Salu2
PD: Si tienes alguna duda no dudes en consultar
Código:
8 mayo: GP de Turquía (Istanbul Park)
Calificacion:
http://www.megaupload.com/?d=8JA09FX6
Carrera:
http://www.megaupload.com/?d=M7RVGUNM
Código:
29 mayo: GP de Mónaco (Montecarlo)
Calificacion:
http://www.megaupload.com/?d=6YP1AK7I
Carrera:
http://www.megaupload.com/?d=UJLRZQA9



RE: F1.GP-India.[2011].[HDTV.720p-DXVA].[MULTI].[Whu-Shu] - PAPA33TEAM - 17-12-2011

Muchas gracias Whu-Shu por vuestro gran trabajo.