Safety Car
F1.GP-Japon.[2011].[HDTV.720p-DXVA].[MULTI].[Whu-Shu] - Versión para impresión

+- Safety Car (http://safety-car.es)
+-- Foro: Formula 1 (http://safety-car.es/forum-1.html)
+--- Foro: Videos (http://safety-car.es/forum-4.html)
+--- Tema: F1.GP-Japon.[2011].[HDTV.720p-DXVA].[MULTI].[Whu-Shu] (/thread-2129.html)



F1.GP-Japon.[2011].[HDTV.720p-DXVA].[MULTI].[Whu-Shu] - Whu-Shu - 16-10-2011

[Imagen: 001_small.jpg]

Código:
Fuente video:
HDTV [Canal ORF1HD].[Emision sin cortes Publicitarios].[720p]
o
HDTV [Canal CNOPT].[Emision Sin Cortes Publicitarios].[720p]

Fuente Audio:
La Sexta [Se monta sobre pista Ac3 para hacer ac3-5.1 Real]
TPA [Se monta sobre pista Ac3 para hacer ac3-5.1 Real]
Ambiente [Se monta sobre pista Ac3 para hacer ac3-5.1 Real]
Ingles [Comentarios en Ingles del canal BBC]
Aleman [Comentarios en Aleman del canal ORFHD]

Este montaje se hace GRACIAS a:
Whu-Shu
[Captura del canal ORFHD - Catura de Audio "La Sexta" - "Aleman" - y Montaje Final]

Zukutru
[Captura de Audio "Ambiente" - "Ingles" - y "Pista Ac3-5.1"]

Compangu
[Captura de Audio "TPA"]

Peseta42
Se encarga de conseguir los audios que nos puedan faltar


MediaInfo:
Código:
Format                                   : Matroska
Format version                           : Version 1
File size                                : 3.21 GiB
Duration                                 : 1h 39mn
Overall bit rate mode                    : Variable
Overall bit rate                         : 4 642 Kbps
Encoded date                             : UTC 2011-10-13 23:16:11
Writing application                      : mkvmerge v2.2.0 ('Turn It On Again') built on Mar  4 2008 13:20:25
Writing library                          : libebml v0.7.7 + libmatroska v0.8.1

Video
ID                                       : 1
Format                                   : AVC
Format/Info                              : Advanced Video Codec
Format profile                           : High@L4.1
Format settings, CABAC                   : Yes
Format settings, ReFrames                : 3 frames
Codec ID                                 : V_MPEG4/ISO/AVC
Duration                                 : 1h 39mn
Bit rate mode                            : Variable
Bit rate                                 : 3 141 Kbps
Maximum bit rate                         : 25.0 Mbps
Width                                    : 1 280 pixels
Height                                   : 720 pixels
Display aspect ratio                     : 16:9
Frame rate                               : 50.000 fps
Color space                              : YUV
Chroma subsampling                       : 4:2:0
Bit depth                                : 8 bits
Scan type                                : Progressive
Bits/(Pixel*Frame)                       : 0.068
Stream size                              : 2.17 GiB (68%)
Title                                    : GP-Japon_2011_720p_[Carrera][MULTI]_By_Whu-Shu
Language                                 : Spanish

Audio #1
ID                                       : 2
Format                                   : AC-3
Format/Info                              : Audio Coding 3
Mode extension                           : CM (complete main)
Codec ID                                 : A_AC3
Duration                                 : 1h 39mn
Bit rate mode                            : Constant
Bit rate                                 : 384 Kbps
Channel(s)                               : 6 channels
Channel positions                        : Front: L C R, Side: L R, LFE
Sampling rate                            : 48.0 KHz
Bit depth                                : 16 bits
Compression mode                         : Lossy
Stream size                              : 272 MiB (8%)
Title                                    : GP-Japon_2011_720p_[Carrera][Sexta]_By_Whu-Shu
Language                                 : Spanish

Audio #2
ID                                       : 3
Format                                   : AC-3
Format/Info                              : Audio Coding 3
Mode extension                           : CM (complete main)
Codec ID                                 : A_AC3
Duration                                 : 1h 39mn
Bit rate mode                            : Constant
Bit rate                                 : 384 Kbps
Channel(s)                               : 6 channels
Channel positions                        : Front: L C R, Side: L R, LFE
Sampling rate                            : 48.0 KHz
Bit depth                                : 16 bits
Compression mode                         : Lossy
Stream size                              : 272 MiB (8%)
Title                                    : GP-Japon_2011_720p_[Carrera][TPA]_By_Whu-Shu
Language                                 : Spanish

Audio #3
ID                                       : 4
Format                                   : AC-3
Format/Info                              : Audio Coding 3
Mode extension                           : CM (complete main)
Codec ID                                 : A_AC3
Duration                                 : 1h 39mn
Bit rate mode                            : Constant
Bit rate                                 : 384 Kbps
Channel(s)                               : 6 channels
Channel positions                        : Front: L C R, Side: L R, LFE
Sampling rate                            : 48.0 KHz
Bit depth                                : 16 bits
Compression mode                         : Lossy
Stream size                              : 272 MiB (8%)
Title                                    : GP-Japon_2011_720p_[Carrera][Amb]_By_Whu-Shu
Language                                 : English

Audio #4
ID                                       : 5
Format                                   : MPEG Audio
Format version                           : Version 1
Format profile                           : Layer 3
Mode                                     : Joint stereo
Mode extension                           : MS Stereo
Codec ID                                 : A_MPEG/L3
Codec ID/Hint                            : MP3
Duration                                 : 1h 39mn
Bit rate mode                            : Constant
Bit rate                                 : 128 Kbps
Channel(s)                               : 2 channels
Sampling rate                            : 48.0 KHz
Compression mode                         : Lossy
Stream size                              : 90.6 MiB (3%)
Title                                    : GP-Japon_2011_720p_[Carrera][Eng]_By_Whu-Shu
Language                                 : English

Audio #5
ID                                       : 6
Format                                   : MPEG Audio
Format version                           : Version 1
Format profile                           : Layer 3
Mode                                     : Joint stereo
Mode extension                           : MS Stereo
Codec ID                                 : A_MPEG/L3
Codec ID/Hint                            : MP3
Duration                                 : 1h 39mn
Bit rate mode                            : Constant
Bit rate                                 : 128 Kbps
Channel(s)                               : 2 channels
Sampling rate                            : 48.0 KHz
Compression mode                         : Lossy
Stream size                              : 90.6 MiB (3%)
Title                                    : GP-Japon_2011_720p_[Carrera][Ger]_By_Whu-Shu
Language                                 : German


Código:
Calificacion:
.....................................
Carrera:
http://www.megaupload.com/?d=AXMVT6AK


PD: Comentar no cuesta nada

Los Archivos estan en cuenta PREMIUM (MEGAUPLOAD) y (FileServe).
El primer .rar solo estara disponible en FileServe, esto es debido a que
los servidores no son gratuitos e intentamos no tener que poner de nuestro dinero
para poder ofrecer la temporada 2012...
(No queremos sacar dinero por este trabajo, tan solo no poner de nuestro bolsillo)
No pidais que se suba totalmente a MU, ya que no se hara, y tampoco se da permiso
a terceros para poder resubirla y/o cambiar los links de descarga y asi aprovecharse
de todo nuestro esfuerzo para daros la F1 como nadie la da por internet.
Otra razon por la que cambiare de servidor es porque MEGAUPLOAD, despues de dos años
posteando y acumulando puntos para poder canjearlos por meses gratis, a decidido
sin previo aviso, rescindir ese servicio y ahora no hay puntos que canjear
por nada... asi que los puntos de 2 años de trabajo han desaparecido...

Por otra parte, si se da permiso a cualquiera que (previamente poniendose en contacto
con nosotros), quiera postear los mismos enlaces en cualquier otra pagina.
Siempre haciendo referencia a los que hacemos este trabajo para vosotros.

NUEVA INCORPORACION EN EL GRUPO
Peseta42
Se encarga de conseguir los audios que nos puedan faltar

==================================================================================

Salu2 y a Disfrutar


RE: F1.GP-Japon.[2011].[HDTV.720p-DXVA].[MULTI].[Whu-Shu] - Alfaster-F1 - 16-10-2011

[Imagen: 140c1dt.jpg]


RE: F1.GP-Japon.[2011].[HDTV.720p-DXVA].[MULTI].[Whu-Shu] - toran - 17-10-2011

buenas.

alguien me puede ayudar a encontrar la temporada 1999 en español, digo esa por que me gustaría verla de nuevo pero si no hay posibilidades me gustaría que fuese otra en español.

gracias.