Safety Car
F1.GP-SPA.[2011].[HDTV.720p-DXVA].[MULTI].[Whu-Shu] - Versión para impresión

+- Safety Car (http://safety-car.es)
+-- Foro: Formula 1 (http://safety-car.es/forum-1.html)
+--- Foro: Videos (http://safety-car.es/forum-4.html)
+--- Tema: F1.GP-SPA.[2011].[HDTV.720p-DXVA].[MULTI].[Whu-Shu] (/thread-1987.html)



F1.GP-SPA.[2011].[HDTV.720p-DXVA].[MULTI].[Whu-Shu] - Whu-Shu - 07-09-2011

[Imagen: gp-belgica-formula-1-2009.jpg]

[spoiler]
Fuente video:
HDTV [Canal ORF1HD].[Emision sin cortes Publicitarios].[720p]
o
HDTV [Canal CNOPT].[Emision Sin Cortes Publicitarios].[720p]

Fuente Audio:
La Sexta [Se monta sobre pista Ac3 para hacer ac3-5.1 Real]
TPA [Se monta sobre pista Ac3 para hacer ac3-5.1 Real]
Ambiente [Se monta sobre pista Ac3 para hacer ac3-5.1 Real]
Ingles [Comentarios en Ingles del canal BBC]
Aleman [Comentarios en Aleman del canal ORFHD]
[/spoiler]

Este montaje se hace GRACIAS a:
Whu-Shu
[Captura del canal ORFHD - Catura de Audio "La Sexta" - "Aleman" - y Montaje Final]
Zukutru
[Captura de Audio "Ambiente" - "Ingles" - y "Pista Ac3-5.1"]
Compangu
[Captura de Audio "TPA"]


MediaInfo:
[spoiler]
General
Format : Matroska
Format version : Version 1
File size : 4.06 GiB
Duration : 1h 30mn
Overall bit rate : 6 407 Kbps
Encoded date : UTC 2011-09-05 11:35:52
Writing application : mkvmerge v2.2.0 ('Turn It On Again') built on Mar 4 2008 13:20:25
Writing library : libebml v0.7.7 + libmatroska v0.8.1

Video
ID : 1
Format : AVC
Format/Info : Advanced Video Codec
Format profile : High@L4.1
Format settings, CABAC : Yes
Format settings, ReFrames : 4 frames
Codec ID : V_MPEG4/ISO/AVC
Duration : 1h 30mn
Nominal bit rate : 5 000 Kbps
Width : 1 280 pixels
Height : 720 pixels
Display aspect ratio : 16:9
Frame rate : 50.000 fps
Color space : YUV
Chroma subsampling : 4:2:0
Bit depth : 8 bits
Scan type : Progressive
Bits/(Pixel*Frame) : 0.109
Title : GP-SPA_2011_720p_[Carrera][MULTI]_By_Whu-Shu
Writing library : x264 core 116 r2074 2641b9e
Encoding settings : cabac=1 / ref=3 / deblock=1:0:0 / analyse=0x3:0x113 / me=hex / subme=7 / psy=1 / psy_rd=1.00:0.00 / mixed_ref=1 / me_range=16 / chroma_me=1 / trellis=1 / 8x8dct=1 / cqm=0 / deadzone=21,11 / fast_pskip=1 / chroma_qp_offset=-2 / threads=12 / sliced_threads=0 / nr=0 / decimate=1 / interlaced=0 / bluray_compat=0 / constrained_intra=0 / bframes=3 / b_pyramid=2 / b_adapt=1 / b_bias=0 / direct=1 / weightb=1 / open_gop=0 / weightp=2 / keyint=250 / keyint_min=25 / scenecut=40 / intra_refresh=0 / rc_lookahead=40 / rc=2pass / mbtree=1 / bitrate=5000 / ratetol=1.0 / qcomp=0.60 / qpmin=0 / qpmax=69 / qpstep=4 / cplxblur=20.0 / qblur=0.5 / vbv_maxrate=50000 / vbv_bufsize=50000 / nal_hrd=none / ip_ratio=1.40 / aq=1:1.00
Language : Spanish

Audio #1
ID : 2
Format : AC-3
Format/Info : Audio Coding 3
Codec ID : A_AC3
Duration : 1h 30mn
Channel(s) : 6 channels
Sampling rate : 44.1 KHz
Compression mode : Lossy
Title : GP-SPA_2011_720p_[Carrera][Sexta]_By_Whu-Shu
Language : Spanish

Audio #2
ID : 3
Format : AC-3
Format/Info : Audio Coding 3
Codec ID : A_AC3
Duration : 1h 30mn
Channel(s) : 6 channels
Sampling rate : 44.1 KHz
Compression mode : Lossy
Title : GP-SPA_2011_720p_[Carrera][TPA]_By_Whu-Shu
Language : Spanish

Audio #3
ID : 4
Format : AC-3
Format/Info : Audio Coding 3
Mode extension : CM (complete main)
Codec ID : A_AC3
Duration : 1h 30mn
Bit rate mode : Constant
Bit rate : 384 Kbps
Channel(s) : 6 channels
Channel positions : Front: L C R, Side: L R, LFE
Sampling rate : 44.1 KHz
Bit depth : 16 bits
Compression mode : Lossy
Delay relative to video : 1s 171ms
Stream size : 249 MiB (6%)
Title : GP-SPA_2011_720p_[Carrera][Amb]_By_Whu-Shu
Language : English

Audio #4
ID : 5
Format : MPEG Audio
Format version : Version 1
Format profile : Layer 3
Codec ID : A_MPEG/L3
Codec ID/Hint : MP3
Duration : 1h 30mn
Bit rate mode : Constant
Bit rate : 128 Kbps
Channel(s) : 2 channels
Sampling rate : 48.0 KHz
Compression mode : Lossy
Stream size : 83.0 MiB (2%)
Language : English

Audio #5
ID : 6
Format : MPEG Audio
Format version : Version 1
Format profile : Layer 3
Mode : Joint stereo
Mode extension : MS Stereo
Codec ID : A_MPEG/L3
Codec ID/Hint : MP3
Duration : 1h 30mn
Bit rate mode : Variable
Bit rate : 118 Kbps
Nominal bit rate : 128 Kbps
Channel(s) : 2 channels
Sampling rate : 48.0 KHz
Compression mode : Lossy
Stream size : 76.8 MiB (2%)
Title : GP-SPA_2011_720p_[Carrera][Ger]_By_Whu-Shu
Writing library : LAME3.98r
Encoding settings : -m j -V 4 -q 2 -lowpass 17 --abr 128
Language : German

[/spoiler]


Código:
Calificacion:
http://www.megaupload.com/?d=01PU0B2K
Carrera:
http://www.megaupload.com/?d=6PV6LS2E


PD: Comentar no cuesta nada

Se incorporan TRES ARCHIVOS .REV en FileServe por si falla algun archivo en la descarga.
[Solo teneis que ejecutar el primer .rev y este generara los archivos que falten].

Los Archivos estan en cuenta PREMIUM (MEGAUPLOAD), y cuenta gratuita en FileServe.
El primer .rar esta disponible solo en FileServe


==================================================================================

En estos momentos me encuentro solo haciendo todo el trabajo...
Bajar todo el material, codificar y sincronizar los audios y hacer los montajes,
por ese motivo tardare un poco mas en hacer los montajes, pero seran posteados.
Las calificaciones de momento las tengo abandonadas, ya que no dispongo tampoco
de los audios de "TPA", ni de tiempo para bajarme todo y hacer los montajes.
Solo me queda dar las gracias a "Zukutru" y a su enorme trabajo en estas carreras
[Espero que pronto podamos volver a disfrutar de su compañia y ayuda]

==================================================================================

Salu2 y a Disfrutar


RE: F1.GP-SPA.[2011].[HDTV.720p-DXVA].[MULTI].[Whu-Shu] - ErdeZGZ - 07-09-2011

Hola socio, ahora nos encontramos aqui jeje, queria comentarte que parece que el titulo de los archivos de fileserve son ligeramente diferentes a los de megaupload, digo parece porque no seria la primera vez que antes de descargar un archivo el titulo es una cosa y al empezar cambia un poco:

12_-_GP-SPA_2011_720p_[Carrera][MULTI]_By_Whu-Shu.part34.rar
12 - GP-SPA_2011_720p_[Carrera][MULTI]_By_Whu-Shu.part34.rar

No se si cambia porque me he descargado algo esta mañana en fileserve y ahora me dice el jdownloader que me he pasado el limite diario y tendre que esperar 2 horas o lo que le apetezca.


RE: F1.GP-SPA.[2011].[HDTV.720p-DXVA].[MULTI].[Whu-Shu] - Whu-Shu - 07-09-2011

Los archivos son los mismos...
Si a cambiado a sido al trasladar la subida de un server a otro.
Con renombrar los archivos se descomprime sin problemas
Salu2


RE: F1.GP-SPA.[2011].[HDTV.720p-DXVA].[MULTI].[Whu-Shu] - joyjoy - 07-09-2011

gracias Whu-Shu ,como siempre Smile


RE: F1.GP-SPA.[2011].[HDTV.720p-DXVA].[MULTI].[Whu-Shu] - German Sanchez - 07-09-2011

Gravias Whu-Shu por tu gran trabajo y esfuerzo.


RE: F1.GP-SPA.[2011].[HDTV.720p-DXVA].[MULTI].[Whu-Shu] - naplam - 07-09-2011

gracias, yo me lo perdí voy a echarle un vistazo
edit:
pff esto del megaupload es una tortura,no tienes un torrent y ya esta?


RE: F1.GP-SPA.[2011].[HDTV.720p-DXVA].[MULTI].[Whu-Shu] - Whu-Shu - 07-09-2011

(07-09-2011, 23:02)naplam escribió: gracias, yo me lo perdí voy a echarle un vistazo
edit:
pff esto del megaupload es una tortura,no tienes un torrent y ya esta?
Lo de Megaupload es de lo mas sencillo que hay...
Bajate el programa JDownloader y es todo casi automatico, ya que Megaupload no te pide que metas el codigo
en cada archivo que se pone a descargar...
Tan solo tienes que descargar y meter el codigo en el primer archivo al estar solo en FileServe
Salu2



RE: F1.GP-SPA.[2011].[HDTV.720p-DXVA].[MULTI].[Whu-Shu] - Whu-Shu - 28-12-2011

Añadida Calificacion
Salu2


RE: F1.GP-SPA.[2011].[HDTV.720p-DXVA].[MULTI].[Whu-Shu] - Diosfenix - 28-12-2011

perfecto uan vez mas!! salud2