Safety Car
F1.GP-Alemania.[2011].[HDTV.720p-DXVA].[MULTI].[Whu-Shu] - Versión para impresión

+- Safety Car (http://safety-car.es)
+-- Foro: Formula 1 (http://safety-car.es/forum-1.html)
+--- Foro: Videos (http://safety-car.es/forum-4.html)
+--- Tema: F1.GP-Alemania.[2011].[HDTV.720p-DXVA].[MULTI].[Whu-Shu] (/thread-1847.html)



F1.GP-Alemania.[2011].[HDTV.720p-DXVA].[MULTI].[Whu-Shu] - Whu-Shu - 27-07-2011

[Imagen: formula_uno_circuito_nurburgring_001.jpg]

[spoiler]
Fuente video:
HDTV [Canal ORF1HD].[Emision sin cortes Publicitarios].[720p]
o
HDTV [Canal CNOPT].[Emision Sin Cortes Publicitarios].[720p]

Fuente Audio:
La Sexta [Se monta sobre pista Ac3 para hacer ac3-5.1 Real]
TPA [Se monta sobre pista Ac3 para hacer ac3-5.1 Real]
Ambiente [Se monta sobre pista Ac3 para hacer ac3-5.1 Real]
Ingles [Comentarios en Ingles del canal BBC]
Aleman [Comentarios en Aleman del canal ORFHD]
[/spoiler]

Este montaje se hace GRACIAS a:
Whu-Shu
[Captura del canal ORFHD - Catura de Audio "La Sexta" - "Aleman" - y Montaje Final]
Zukutru
[Captura de Audio "Ambiente" - "Ingles" - y "Pista Ac3-5.1"]
Compangu
[Captura de Audio "TPA"]

[Spoiler]
General
Format : Matroska
Format version : Version 1
File size : 3.93 GiB
Duration : 1h 44mn
Overall bit rate : 5 415 Kbps
Encoded date : UTC 2011-07-27 16:07:50
Writing application : mkvmerge v2.2.0 ('Turn It On Again') built on Mar 4 2008 13:20:25
Writing library : libebml v0.7.7 + libmatroska v0.8.1

Video
ID : 1
Format : AVC
Format/Info : Advanced Video Codec
Format profile : High@L4.1
Format settings, CABAC : Yes
Format settings, ReFrames : 3 frames
Codec ID : V_MPEG4/ISO/AVC
Duration : 1h 44mn
Bit rate mode : Variable
Bit rate : 3 999 Kbps
Maximum bit rate : 14.0 Mbps
Width : 1 280 pixels
Height : 720 pixels
Display aspect ratio : 16:9
Frame rate : 50.000 fps
Color space : YUV
Chroma subsampling : 4:2:0
Bit depth : 8 bits
Scan type : Progressive
Bits/(Pixel*Frame) : 0.087
Stream size : 2.83 GiB (72%)
Title : GP-Alemania_2011_720p_[Carrera][MULTI]_By_Whu-Shu
Writing library : x264 core 115 r1995 c1e60b9
Encoding settings : cabac=1 / ref=4 / deblock=1:0:0 / analyse=0x3:0x113
/ me=hex / subme=7 / psy=1 / psy_rd=1.00:0.00 / mixed_ref=1 / me_range=16 / chroma_me=1
/ trellis=1 / 8x8dct=1 / cqm=0 / deadzone=21,11 / fast_pskip=1 / chroma_qp_offset=-2
/ threads=12 / sliced_threads=0 / slices=4 / nr=0 / decimate=1 / interlaced=0
/ bluray_compat=1 / constrained_intra=0 / bframes=3 / b_pyramid=1 / b_adapt=1 / b_bias=0
/ direct=1 / weightb=1 / open_gop=1 / weightp=0 / keyint=24 / keyint_min=2 / scenecut=40
/ intra_refresh=0 / rc_lookahead=40 / rc=2pass / mbtree=1 / bitrate=3999 / ratetol=1.0
/ qcomp=0.60 / qpmin=0 / qpmax=69 / qpstep=4 / cplxblur=20.0 / qblur=0.5 / vbv_maxrate=14000
/ vbv_bufsize=14500 / nal_hrd=vbr / ip_ratio=1.40 / aq=1:1.00

Language : Spanish
Color primaries : BT.709-5, BT.1361, IEC 61966-2-4, SMPTE RP177
Transfer characteristics : BT.709-5, BT.1361
Matrix coefficients : BT.709-5, BT.1361, IEC 61966-2-4 709, SMPTE RP177

Audio #1
ID : 2
Format : AC-3
Format/Info : Audio Coding 3
Mode extension : CM (complete main)
Codec ID : A_AC3
Duration : 1h 44mn
Bit rate mode : Constant
Bit rate : 384 Kbps
Channel(s) : 6 channels
Channel positions : Front: L C R, Side: L R, LFE
Sampling rate : 48.0 KHz
Bit depth : 16 bits
Compression mode : Lossy
Stream size : 286 MiB (7%)
Title : GP-Alemania_2011_720p_[Carrera][Sexta]_By_Whu-Shu
Language : Spanish

Audio #2
ID : 3
Format : AC-3
Format/Info : Audio Coding 3
Mode extension : CM (complete main)
Codec ID : A_AC3
Duration : 1h 44mn
Bit rate mode : Constant
Bit rate : 384 Kbps
Channel(s) : 6 channels
Channel positions : Front: L C R, Side: L R, LFE
Sampling rate : 48.0 KHz
Bit depth : 16 bits
Compression mode : Lossy
Stream size : 286 MiB (7%)
Title : GP-Alemania_2011_720p_[Carrera][TPA]_By_Whu-Shu
Language : Spanish

Audio #3
ID : 4
Format : AC-3
Format/Info : Audio Coding 3
Mode extension : CM (complete main)
Codec ID : A_AC3
Duration : 1h 44mn
Bit rate mode : Constant
Bit rate : 384 Kbps
Channel(s) : 6 channels
Channel positions : Front: L C R, Side: L R, LFE
Sampling rate : 48.0 KHz
Bit depth : 16 bits
Compression mode : Lossy
Stream size : 286 MiB (7%)
Title : GP-Alemania_2011_720p_[Carrera][Amb]_By_Whu-Shu
Language : German

Audio #4
ID : 5
Format : MPEG Audio
Format version : Version 1
Format profile : Layer 3
Codec ID : A_MPEG/L3
Codec ID/Hint : MP3
Duration : 1h 44mn
Bit rate mode : Constant
Bit rate : 128 Kbps
Channel(s) : 2 channels
Sampling rate : 48.0 KHz
Compression mode : Lossy
Stream size : 95.3 MiB (2%)
Title : GP-Alemania_2011_720p_[Carrera][Eng]_By_Whu-Shu
Language : English

Audio #5
ID : 6
Format : MPEG Audio
Format version : Version 1
Format profile : Layer 3
Codec ID : A_MPEG/L3
Codec ID/Hint : MP3
Duration : 1h 44mn
Bit rate mode : Constant
Bit rate : 128 Kbps
Channel(s) : 2 channels
Sampling rate : 48.0 KHz
Compression mode : Lossy
Stream size : 95.3 MiB (2%)
Title : GP-Alemania_2011_720p_[Carrera][Ger]_By_Whu-Shu
Language : German


Código:
Calificacion:
http://www.megaupload.com/?d=W1RVN1MM
Carrera:
http://www.megaupload.com/?d=YMND7GBU

==================================================================================

PD: Comentar no cuesta nada
Parece que MEGAUPLOAD esta un poco tocapelotas...
Si te sale eso de que el archivo no esta ONLINE, o que esta
"Temporalmete Imcomprobable", hay que darle tiempo.

Se incorporan TRES ARCHIVOS .REV por si falla algun archivo en la descarga.
[Solo teneis que ejecutar el primer .rev y este generara los archivos que falten]

Los Archivos estan en cuenta PREMIUM y no seran borrados.

==================================================================================

Desde hace unas semanas, hay algunas carreras y/o calificaiones que
NO SE PUEDEN REPRODUCIR EN ALGUNAS "TV" O "REPRODUCTORES MULTIMEDIAS"

El fallo parece que lo probocaba el "MKVMerge" y por eso he vuelto
a una version mucho mas antigua de este programa.

Solucion al problema:

(El proceso dura 4 o 5 minutos por archivo y no se necesita recomprimir nada.)

Minituto: http://www.megaupload.com/?d=QUTWJ2GS


Archivos afectados:
06 - GP-Monaco_2011_ORF1HD_720p_[Calificacion][MULTI]_By_Whu-Shu.mkv
07 - GP-Canada_2011_720p_[Calificacion][MULTI]_By_Whu-Shu.mkv
07 - GP-Canada_2011_ORF1HD_720p_[Carrera][MULTI]_By_Whu-Shu.mkv
08 - GP-Europa_2011_720p_[Calificacion][MULTI]_By_Whu-Shu.mkv
08 - GP-Europa_2011_720p_[Carrera][MULTI]_By_Whu-Shu.mkv
09 - GP-SilverStone_2011_720p_[Carrera][MULTI]_By_Whu-Shu.mkv

Aqui unos samples de prueba:
==================================================================================

Sample 1 (Este NO tiene que funcionar en las "TV" o "Reproductores Multimedia")
http://www.megaupload.com/?d=CU1MHQCU
==================================================================================

Sample 2 (Este SI tiene que funcionar en las "TV" o "Reproductores Multimedia")
http://www.megaupload.com/?d=BU1N694K

==================================================================================

Salu2 y espero que os sirva.


RE: F1.GP-Alemania.[2011].[HDTV.720p-DXVA].[MULTI].[Whu-Shu] - joyjoy - 27-07-2011

gracias Whu-Shu por tus videos ,los espero como agua de mayo Smile


RE: F1.GP-Alemania.[2011].[HDTV.720p-DXVA].[MULTI].[Whu-Shu] - joyjoy - 27-07-2011

se me oyen perfecto los 2 samples porque uso VLC media player Smile (no ce necesitas instalar los codecs porque lleva todo lo que hace falta)

es muy bueno os lo recomiendo Smile y encima totalmente gratis


RE: F1.GP-Alemania.[2011].[HDTV.720p-DXVA].[MULTI].[Whu-Shu] - Whu-Shu - 27-07-2011

(27-07-2011, 19:36)joyjoy escribió: se me oyen perfecto los 2 samples porque uso VLC media player Smile

El problema NO es el sonido...
Hay gente que utiliza "Reproductores Multimendia" o las propias TV como reproductores, y las 3 ultimas carreras parece que NO les funconaban en dichos reproductores o Televisiones.
Por eso he estado mirando y haciendo las pruebas que puedo con lo que tengo, para solucionar ese problema a la gente.
En mi caso, hace poco adquiri un TDT que reproduce .mkv y probando en este TDT he podido reproducir el segundo sample, no asi el primero. Aun siendo la misma compresion y solo cambiando el programa que utilizo para Multiplexar los audios "MKVMerge", se a solucionado el problema.
Salu2


RE: F1.GP-Alemania.[2011].[HDTV.720p-DXVA].[MULTI].[Whu-Shu] - joyjoy - 27-07-2011

pues mejor me lo pones mas gente te tendría que dar las gracias ,por tu preocupaciones para que a la peña ,lo pueda visionar en casi todos los reproductores Smile


RE: F1.GP-Alemania.[2011].[HDTV.720p-DXVA].[MULTI].[Whu-Shu] - Wiixstation360 - 27-07-2011

Gracias por subirla.


RE: F1.GP-Alemania.[2011].[HDTV.720p-DXVA].[MULTI].[Whu-Shu] - Whu-Shu - 29-07-2011

Posteada la carrera
Salu2


RE: F1.GP-Alemania.[2011].[HDTV.720p-DXVA].[MULTI].[Whu-Shu] - Whu-Shu - 28-12-2011

Añadida Calificacion
Salu2