Safety Car
F1.GP-Europa.[2011].[HDTV.720p-DXVA].[MULTI].[Whu-Shu] - Versión para impresión

+- Safety Car (http://safety-car.es)
+-- Foro: Formula 1 (http://safety-car.es/forum-1.html)
+--- Foro: Videos (http://safety-car.es/forum-4.html)
+--- Tema: F1.GP-Europa.[2011].[HDTV.720p-DXVA].[MULTI].[Whu-Shu] (/thread-1767.html)



F1.GP-Europa.[2011].[HDTV.720p-DXVA].[MULTI].[Whu-Shu] - Whu-Shu - 09-07-2011

[Imagen: circuito-15.png]

[spoiler]
Fuente video:
HDTV [Canal ORF1HD].[Emision sin cortes Publicitarios].[720p]
o
HDTV [Canal CNOPT].[Emision Sin Cortes Publicitarios].[720p]

Fuente Audio:
La Sexta [Se monta sobre pista Ac3 para hacer ac3-5.1 Real]
TPA [Se monta sobre pista Ac3 para hacer ac3-5.1 Real]
MarcaTV [Se monta sobre pista Ac3 para hacer ac3-5.1 Real]
Ambiente [Se monta sobre pista Ac3 para hacer ac3-5.1 Real]
Ingles [Comentarios en Ingles del canal BBC]
Aleman [Comentarios en Aleman del canal ORFHD]
[/spoiler]

Este montaje se hace GRACIAS a:
Whu-Shu
[Captura del canal ORFHD - Catura de Audio "La Sexta" - "Aleman" - "MarcaTV" y Montaje Final]
Zukutru
[Captura de Audio "Ambiente" - "Ingles" - y "Pista Ac3-5.1"]
Compangu
[Captura de Audio "TPA"]


MediaInfo:
[Spoiler]
General
Format : Matroska
File size : 3.72 GiB
Duration : 1h 46mn
Overall bit rate : 4 980 Kbps
Encoded date : UTC 2011-07-07 11:42:01
Writing application : mkvmerge v4.8.0 ('I Got The...') creado el May 24 2011 03:12:58
Writing library : libebml v1.2.0 + libmatroska v1.1.0

Video
ID : 1
Format : AVC
Format/Info : Advanced Video Codec
Format profile : High@L4.1
Format settings, CABAC : Yes
Format settings, ReFrames : 3 frames
Muxing mode : Header stripping
Codec ID : V_MPEG4/ISO/AVC
Duration : 1h 46mn
Bit rate mode : Variable
Bit rate : 3 345 Kbps
Maximum bit rate : 25.0 Mbps
Width : 1 280 pixels
Height : 720 pixels
Display aspect ratio : 16:9
Frame rate : 50.000 fps
Color space : YUV
Chroma subsampling : 4:2:0
Bit depth : 8 bits
Scan type : Progressive
Bits/(Pixel*Frame) : 0.073
Stream size : 2.50 GiB (67%)
Title : GP-Europa_2011_720p_[Carrera][MULTI]_By_Whu-Shu
Language : Spanish

Audio #1
ID : 2
Format : AC-3
Format/Info : Audio Coding 3
Mode extension : CM (complete main)
Muxing mode : Header stripping
Codec ID : A_AC3
Duration : 1h 46mn
Bit rate mode : Constant
Bit rate : 320 Kbps
Channel(s) : 6 channels
Channel positions : Front: L C R, Side: L R, LFE
Sampling rate : 48.0 KHz
Bit depth : 16 bits
Compression mode : Lossy
Stream size : 245 MiB (6%)
Title : GP-Europa_2011_720p_[Carrera][Sexta]_By_Whu-Shu
Language : Spanish

Audio #2
ID : 3
Format : AC-3
Format/Info : Audio Coding 3
Mode extension : CM (complete main)
Muxing mode : Header stripping
Codec ID : A_AC3
Duration : 1h 46mn
Bit rate mode : Constant
Bit rate : 320 Kbps
Channel(s) : 6 channels
Channel positions : Front: L C R, Side: L R, LFE
Sampling rate : 48.0 KHz
Bit depth : 16 bits
Compression mode : Lossy
Stream size : 245 MiB (6%)
Title : GP-Europa_2011_720p_[Carrera][TPA]_By_Whu-Shu
Language : Spanish

Audio #3
ID : 4
Format : AC-3
Format/Info : Audio Coding 3
Mode extension : CM (complete main)
Muxing mode : Header stripping
Codec ID : A_AC3
Duration : 1h 46mn
Bit rate mode : Constant
Bit rate : 320 Kbps
Channel(s) : 6 channels
Channel positions : Front: L C R, Side: L R, LFE
Sampling rate : 48.0 KHz
Bit depth : 16 bits
Compression mode : Lossy
Stream size : 245 MiB (6%)
Title : GP-Europa_2011_720p_[Carrera][MarcaTV]_By_Whu-Shu
Language : Spanish

Audio #4
ID : 5
Format : AC-3
Format/Info : Audio Coding 3
Mode extension : CM (complete main)
Muxing mode : Header stripping
Codec ID : A_AC3
Duration : 1h 46mn
Bit rate mode : Constant
Bit rate : 320 Kbps
Channel(s) : 6 channels
Channel positions : Front: L C R, Side: L R, LFE
Sampling rate : 48.0 KHz
Bit depth : 16 bits
Compression mode : Lossy
Stream size : 245 MiB (6%)
Title : GP-Europa_2011_720p_[Carrera][Amb]_By_Whu-Shu
Language : English

Audio #5
ID : 6
Format : MPEG Audio
Format version : Version 1
Format profile : Layer 3
Muxing mode : Header stripping
Codec ID : A_MPEG/L3
Codec ID/Hint : MP3
Duration : 1h 46mn
Bit rate mode : Constant
Bit rate : 128 Kbps
Channel(s) : 2 channels
Sampling rate : 48.0 KHz
Compression mode : Lossy
Stream size : 97.9 MiB (3%)
Title : GP-Europa_2011_720p_[Carrera][Eng]_By_Whu-Shu
Language : English

Audio #6
ID : 7
Format : MPEG Audio
Format version : Version 1
Format profile : Layer 3
Muxing mode : Header stripping
Codec ID : A_MPEG/L3
Codec ID/Hint : MP3
Duration : 1h 46mn
Bit rate mode : Constant
Bit rate : 128 Kbps
Channel(s) : 2 channels
Sampling rate : 48.0 KHz
Compression mode : Lossy
Stream size : 97.9 MiB (3%)
Title : GP-Europa_2011_720p_[Carrera][Ger]_By_Whu-Shu
Language : German
[/Spoiler]


Código:
Calificacion:
http://www.megaupload.com/?d=OLV75B6L
Carrera:
http://www.megaupload.com/?d=DCKU1OOE


PD: Comentar no cuesta nada
Parece que MEGAUPLOAD esta un poco tocapelotas...
Si te sale eso de que el archivo no esta ONLINE, o que esta
"Temporalmete Imcomprobable", hay que darle tiempo.

Se incorporan TRES ARCHIVOS .REV por si falla algun archivo en la descarga.
[Solo teneis que ejecutar el primer .rev y este generara los archivos que falten]

Los Archivos estan en cuenta PREMIUM y no seran borrados.

==============================================================

Salu2 y a Disfrutar


RE: F1.GP-Europa.[2011].[HDTV.720p-DXVA].[MULTI].[Whu-Shu] - PAPA33TEAM - 10-07-2011

Muchas gracias,bajando.
Saludosssssssssss.


RE: F1.GP-Europa.[2011].[HDTV.720p-DXVA].[MULTI].[Whu-Shu] - Whu-Shu - 13-07-2011

Añadida la calificacion
Salu2


RE: F1.GP-Europa.[2011].[HDTV.720p-DXVA].[MULTI].[Whu-Shu] - Whu-Shu - 14-07-2011

Se a cambiado la carrera
Parece que el video antiguo da problemas en algunos reproductores multimedia
Se a puesto un video nuevo y recomprimido por mi, con los ajustes de siempre
Salu2

PD: Silverstone esta subiendo, en un par de dias estara lista