Safety Car
F1.GP-Espania.[2011].[HDTV.720p-DXVA].[MULTI].[Whu-Shu] - Versión para impresión

+- Safety Car (http://safety-car.es)
+-- Foro: Formula 1 (http://safety-car.es/forum-1.html)
+--- Foro: Videos (http://safety-car.es/forum-4.html)
+--- Tema: F1.GP-Espania.[2011].[HDTV.720p-DXVA].[MULTI].[Whu-Shu] (/thread-1609.html)



F1.GP-Espania.[2011].[HDTV.720p-DXVA].[MULTI].[Whu-Shu] - Whu-Shu - 29-05-2011

[Imagen: CircuitodeCatalunya.jpg]

[spoiler]
HDTV [Canal ORF1HD].[Emision sin cortes Publicitarios].[720p]
Fuente Audio:
La Sexta [Se monta sobre pista Ac3-5.1 para hacer ac3-5.1 Real]
TPA [Se monta sobre pista Ac3-5.1 para hacer ac3-5.1 Real]
MarcaTV [Se monta sobre pista Ac3-5.1 para hacer ac3-5.1 Real]
Ambiente [Se monta sobre pista Ac3-5.1 para hacer ac3-5.1 Real]
Ingles [Comentarios en Ingles del canal BBC]
Aleman [Comentarios en Aleman del canal ORFHD][/spoiler]

[Spoiler]
General
Complete name : 05 - GP-Espania_2011_ORF1HD_720p_[Carrera][MULTI]_By_Whu-Shu.mkv
Format : Matroska
File size : 4.17 GiB
Duration : 1h 45mn
Overall bit rate : 5 664 Kbps
Encoded date : UTC 2011-05-25 23:53:49
Writing application : mkvmerge v2.2.0 ('Turn It On Again') built on Mar 4 2008 12:58:26
Writing library : libebml v0.7.7 + libmatroska v0.8.1

Video
ID : 1
Format : AVC
Format/Info : Advanced Video Codec
Format profile : High@L4.1
Format settings, CABAC : Yes
Format settings, ReFrames : 4 frames
Codec ID : V_MPEG4/ISO/AVC
Duration : 1h 45mn
Bit rate : 3 885 Kbps
Width : 1 280 pixels
Height : 720 pixels
Display aspect ratio : 16:9
Frame rate : 50.000 fps
Color space : YUV
Chroma subsampling : 4:2:0
Bit depth : 8 bits
Scan type : Progressive
Bits/(Pixel*Frame) : 0.084
Stream size : 2.78 GiB (67%)
Title : 05 - GP-Espania_2011_ORF1HD_720p_[Carrera][MULTI]_By_Whu-Shu
Writing library : x264 core 114 r1924 08d04a4
Encoding settings : cabac=1 / ref=3 / deblock=1:0:0 / analyse=0x3:0x113 / me=hex / subme=7 / psy=1 / psy_rd=1.00:0.00 / mixed_ref=1 / me_range=16 / chroma_me=1 / trellis=1 / 8x8dct=1 / cqm=0 / deadzone=21,11 / fast_pskip=1 / chroma_qp_offset=-2 / threads=12 / sliced_threads=0 / nr=0 / decimate=1 / interlaced=0 / constrained_intra=0 / bframes=3 / b_pyramid=2 / b_adapt=1 / b_bias=0 / direct=1 / weightb=1 / open_gop=0 / weightp=2 / keyint=250 / keyint_min=25 / scenecut=40 / intra_refresh=0 / rc_lookahead=40 / rc=2pass / mbtree=1 / bitrate=3885 / ratetol=1.0 / qcomp=0.60 / qpmin=0 / qpmax=69 / qpstep=4 / cplxblur=20.0 / qblur=0.5 / vbv_maxrate=50000 / vbv_bufsize=50000 / nal_hrd=none / ip_ratio=1.40 / aq=1:1.00

Audio #1
ID : 2
Format : AC-3
Format/Info : Audio Coding 3
Mode extension : CM (complete main)
Codec ID : A_AC3
Duration : 1h 45mn
Bit rate mode : Constant
Bit rate : 384 Kbps
Channel(s) : 6 channels
Channel positions : Front: L C R, Side: L R, LFE
Sampling rate : 48.0 KHz
Bit depth : 16 bits
Stream size : 290 MiB (7%)
Title : 05 - GP-Espania_2011_ORF1HD_720p_[Carrera][Sexta]_By_Whu-Shu
Language : Spanish

Audio #2
ID : 3
Format : AC-3
Format/Info : Audio Coding 3
Mode extension : CM (complete main)
Codec ID : A_AC3
Duration : 1h 45mn
Bit rate mode : Constant
Bit rate : 384 Kbps
Channel(s) : 6 channels
Channel positions : Front: L C R, Side: L R, LFE
Sampling rate : 48.0 KHz
Bit depth : 16 bits
Stream size : 290 MiB (7%)
Title : 05 - GP-Espania_2011_ORF1HD_720p_[Carrera][TPA]_By_Whu-Shu
Language : Spanish

Audio #3
ID : 4
Format : AC-3
Format/Info : Audio Coding 3
Mode extension : CM (complete main)
Codec ID : A_AC3
Duration : 1h 45mn
Bit rate mode : Constant
Bit rate : 384 Kbps
Channel(s) : 6 channels
Channel positions : Front: L C R, Side: L R, LFE
Sampling rate : 48.0 KHz
Bit depth : 16 bits
Stream size : 290 MiB (7%)
Title : 05 - GP-Espania_2011_ORF1HD_720p_[Carrera][MarcaTV]_By_Whu-Shu
Language : Spanish

Audio #4
ID : 5
Format : AC-3
Format/Info : Audio Coding 3
Mode extension : CM (complete main)
Codec ID : A_AC3
Duration : 1h 45mn
Bit rate mode : Constant
Bit rate : 384 Kbps
Channel(s) : 6 channels
Channel positions : Front: L C R, Side: L R, LFE
Sampling rate : 48.0 KHz
Bit depth : 16 bits
Stream size : 290 MiB (7%)
Title : 05 - GP-Espania_2011_ORF1HD_720p_[Carrera][Amb]_By_Whu-Shu
Language : English

Audio #5
ID : 6
Format : MPEG Audio
Format version : Version 1
Format profile : Layer 3
Codec ID : A_MPEG/L3
Codec ID/Hint : MP3
Duration : 1h 45mn
Bit rate mode : Constant
Bit rate : 128 Kbps
Channel(s) : 2 channels
Sampling rate : 48.0 KHz
Stream size : 96.5 MiB (2%)
Title : 05 - GP-Espania_2011_ORF1HD_720p_[Carrera][Eng]_By_Whu-Shu
Language : English

Audio #6
ID : 7
Format : MPEG Audio
Format version : Version 1
Format profile : Layer 3
Mode : Joint stereo
Mode extension : MS Stereo
Codec ID : A_MPEG/L3
Codec ID/Hint : MP3
Duration : 1h 45mn
Bit rate mode : Variable
Bit rate : 115 Kbps
Nominal bit rate : 128 Kbps
Channel(s) : 2 channels
Sampling rate : 48.0 KHz
Stream size : 86.6 MiB (2%)
Title : 05 - GP-Espania_2011_ORF1HD_720p_[Carrera][Ger]_By_Whu-Shu
Writing library : LAME3.98r
Encoding settings : -m j -V 4 -q 2 -lowpass 17 --abr 128
Language : German
[/spoiler]
Calificacion GP-España_2011
Código:
http://www.megaupload.com/?d=5WW4F9HC
Carrera - GP-España_2011
Código:
http://www.megaupload.com/?d=W9VS4Z41
Este montaje se hace GRACIAS a:
Whu-Shu
[Captura del canal ORFHD - Catura de Audio "La Sexta" - "Aleman" - "MarcaTV" y Montaje Final]
Zukutru
[Captura de Audio "Ambiente" - "Ingles"]
Compangu
[Captura de Audio "TPA"

PD: Comentar no cuesta nada
Parece que MEGAUPLOAD esta un poco tocapel....
Si te sale eso de que el archivo no esta ONLINE, o que esta
"Temporalmete Imcomprobable"... hay que darle tiempo.
Los Archivos estan en cuenta PREMIUM y no seran borrados.

PD:
La calificacion se subira despues de la carrera de Monaco
Salu2


RE: F1.GP-Espania.[2011].[HDTV.720p-DXVA].[MULTI].[Whu-Shu] - Bayadoro - 29-05-2011

¡¡¡Gracias!!!


RE: F1.GP-Espania.[2011].[HDTV.720p-DXVA].[MULTI].[Whu-Shu] - juanillooo - 29-05-2011

Muchas gracias!!


RE: F1.GP-Espania.[2011].[HDTV.720p-DXVA].[MULTI].[Whu-Shu] - aktimel - 29-05-2011

Gracias, lo esperaba como agua de mayo...


RE: F1.GP-Espania.[2011].[HDTV.720p-DXVA].[MULTI].[Whu-Shu] - 04081961ros - 30-05-2011

¡¡¡Gracias, Whu-Shu!!!


RE: F1.GP-Espania.[2011].[HDTV.720p-DXVA].[MULTI].[Whu-Shu] - 04081961ros - 31-05-2011

hola, whu-Shu, el archivo 25 del gran premio de españa me baja poco, se corta luego vuelve a bajar, conexion perdida, y asin un puñado de veces.


RE: F1.GP-Espania.[2011].[HDTV.720p-DXVA].[MULTI].[Whu-Shu] - Whu-Shu - 01-06-2011

(31-05-2011, 21:31)04081961ros escribió: hola, whu-Shu, el archivo 25 del gran premio de españa me baja poco, se corta luego vuelve a bajar, conexion perdida, y asin un puñado de veces.

Eso es cosa de Megaupload...
no te preocupes, para los casos en que falten o den error algunos archivos
se suben 3 archivos .rev...
si los has bajado haz doble click sobre el primero y te generara el archivo que te falta
salu2
PD: Se pueden generar hasta 3 archivos que puedan faltar o esten en mal estado


RE: F1.GP-Espania.[2011].[HDTV.720p-DXVA].[MULTI].[Whu-Shu] - Whu-Shu - 01-06-2011

Añadida la calificacion
Salu2