Safety Car
F1.GP-Turquia.[2011].[HDTV.720p-DXVA].[MULTI].[Whu-Shu] - Versión para impresión

+- Safety Car (http://safety-car.es)
+-- Foro: Formula 1 (http://safety-car.es/forum-1.html)
+--- Foro: Videos (http://safety-car.es/forum-4.html)
+--- Tema: F1.GP-Turquia.[2011].[HDTV.720p-DXVA].[MULTI].[Whu-Shu] (/thread-1510.html)

Páginas: 1 2


F1.GP-Turquia.[2011].[HDTV.720p-DXVA].[MULTI].[Whu-Shu] - Whu-Shu - 17-05-2011

[Imagen: rnb_turquia_0506.jpeg]

[spoiler]Fuente video:
HDTV [Canal ORF1HD].[Emision sin cortes Publicitarios].[720p]
Fuente Audio:
La Sexta [Se monta sobre pista Ac3 Real de ORF1HD para hacer ac3-5.1 Real]
TPA [Se monta sobre pista Ac3 Real de ORF1HD para hacer ac3-5.1 Real]
MarcaTV [Se monta sobre pista Ac3 Real de ORF1HD para hacer ac3-5.1 Real]
Ambiente [Se monta sobre pista Ac3 Real de ORF1HD para hacer ac3-5.1 Real]
Ingles [Comentarios en Ingles del canal BBC]
Aleman [Comentarios en Aleman del canal ORFHD][/spoiler]

[Spoiler]
General
Complete name : 04 - GP-Turquia_2011_ORF1HD_720p_[Carlificacion][MULTI]_By_Whu-Shu.mkv
Format : Matroska
File size : 2.09 GiB
Duration : 1h 3mn
Overall bit rate : 4 682 Kbps
Encoded date : UTC 2011-05-15 17:38:50
Writing application : mkvmerge v2.2.0 ('Turn It On Again') built on Mar 4 2008 12:58:26
Writing library : libebml v0.7.7 + libmatroska v0.8.1

Video
ID : 1
Format : AVC
Format/Info : Advanced Video Codec
Format profile : High@L4.1
Format settings, CABAC : Yes
Format settings, ReFrames : 4 frames
Codec ID : V_MPEG4/ISO/AVC
Duration : 1h 3mn
Bit rate : 2 884 Kbps
Width : 1 264 pixels
Height : 720 pixels
Display aspect ratio : 16:9
Original display aspect ratio : 16:9
Frame rate : 50.000 fps
Color space : YUV
Chroma subsampling : 4:2:0
Bit depth : 8 bits
Scan type : Progressive
Bits/(Pixel*Frame) : 0.063
Stream size : 1.25 GiB (60%)
Title : GP-Turquia_2011_ORF1HD_720p_[Carlificacion][MULTI]_By_Whu-Shu
Writing library : x264 core 114 r1924 08d04a4
Encoding settings : cabac=1 / ref=3 / deblock=1:0:0 / analyse=0x3:0x113 / me=hex / subme=7 / psy=1 / psy_rd=1.00:0.00
/ mixed_ref=1 / me_range=16 / chroma_me=1 / trellis=1 / 8x8dct=1 / cqm=0 / deadzone=21,11 / fast_pskip=1
/ chroma_qp_offset=-2 / threads=12 / sliced_threads=0 / nr=0 / decimate=1 / interlaced=0 / constrained_intra=0
/ bframes=3 / b_pyramid=2 / b_adapt=1 / b_bias=0 / direct=1 / weightb=1 / open_gop=0 / weightp=2 / keyint=250
/ keyint_min=25 / scenecut=40 / intra_refresh=0 / rc_lookahead=40 / rc=2pass / mbtree=1 / bitrate=2884
/ ratetol=1.0 / qcomp=0.60 / qpmin=0 / qpmax=69 / qpstep=4 / cplxblur=20.0 / qblur=0.5 / vbv_maxrate=50000
/ vbv_bufsize=50000 / nal_hrd=none / ip_ratio=1.40 / aq=1:1.00
Language : Spanish

Audio #1
ID : 2
Format : AC-3
Format/Info : Audio Coding 3
Mode extension : CM (complete main)
Codec ID : A_AC3
Duration : 1h 3mn
Bit rate mode : Constant
Bit rate : 384 Kbps
Channel(s) : 6 channels
Channel positions : Front: L C R, Side: L R, LFE
Sampling rate : 48.0 KHz
Bit depth : 16 bits
Stream size : 175 MiB (8%)
Title : GP-Turquia_2011_ORF1HD_720p_[Carlificacion][Sexta]_By_Whu-Shu
Language : Spanish

Audio #2
ID : 3
Format : AC-3
Format/Info : Audio Coding 3
Mode extension : CM (complete main)
Codec ID : A_AC3
Duration : 1h 3mn
Bit rate mode : Constant
Bit rate : 384 Kbps
Channel(s) : 6 channels
Channel positions : Front: L C R, Side: L R, LFE
Sampling rate : 48.0 KHz
Bit depth : 16 bits
Stream size : 175 MiB (8%)
Title : GP-Turquia_2011_ORF1HD_720p_[Carlificacion][TPA]_By_Whu-Shu
Language : Spanish

Audio #3
ID : 4
Format : AC-3
Format/Info : Audio Coding 3
Mode extension : CM (complete main)
Codec ID : A_AC3
Duration : 1h 3mn
Bit rate mode : Constant
Bit rate : 384 Kbps
Channel(s) : 6 channels
Channel positions : Front: L C R, Side: L R, LFE
Sampling rate : 48.0 KHz
Bit depth : 16 bits
Stream size : 175 MiB (8%)
Title : GP-Turquia_2011_ORF1HD_720p_[Carlificacion][Marca]_By_Whu-Shu
Language : Spanish

Audio #4
ID : 5
Format : AC-3
Format/Info : Audio Coding 3
Mode extension : CM (complete main)
Codec ID : A_AC3
Duration : 1h 3mn
Bit rate mode : Constant
Bit rate : 384 Kbps
Channel(s) : 6 channels
Channel positions : Front: L C R, Side: L R, LFE
Sampling rate : 48.0 KHz
Bit depth : 16 bits
Stream size : 175 MiB (8%)
Title : GP-Turquia_2011_ORF1HD_720p_[Carlificacion][Amb]_By_Whu-Shu
Language : German

Audio #5
ID : 6
Format : MPEG Audio
Format version : Version 1
Format profile : Layer 3
Codec ID : A_MPEG/L3
Codec ID/Hint : MP3
Duration : 1h 3mn
Bit rate mode : Constant
Bit rate : 128 Kbps
Channel(s) : 2 channels
Sampling rate : 48.0 KHz
Stream size : 58.5 MiB (3%)
Title : GP-Turquia_2011_ORF1HD_720p_[Carlificacion][Eng]_By_Whu-Shu
Language : English

Audio #6
ID : 7
Format : MPEG Audio
Format version : Version 1
Format profile : Layer 3
Codec ID : A_MPEG/L3
Codec ID/Hint : MP3
Duration : 1h 3mn
Bit rate mode : Constant
Bit rate : 128 Kbps
Channel(s) : 2 channels
Sampling rate : 48.0 KHz
Stream size : 58.5 MiB (3%)
Title : GP-Turquia_2011_ORF1HD_720p_[Carlificacion][Ger]_By_Whu-Shu
Language : German
[/Spoiler]

Calificacion GP-Turquia_2011
Código:
http://www.megaupload.com/?d=8JA09FX6

Carrera - GP-Turquia_2011
Código:
http://www.megaupload.com/?d=M7RVGUNM


Este montaje se hace GRACIAS a:
Whu-Shu
[Captura del canal ORFHD - Catura de Audio "La Sexta" - "Aleman" - "MarcaTV" y Montaje Final]
Zukutru
[Captura de Audio "Ambiente" - "Ingles"]
Compangu
[Captura de Audio "TPA"

PD: Comentar no cuesta nada
Parece que MEGAUPLOAD esta un poco tocapel....
Si te sale eso de que el archivo no esta ONLINE, o que esta
"Temporalmete Imcomprobable"... hay que darle tiempo.
Los Archivos estan en cuenta PREMIUM y no seran borrados.

PD:
Si todo va bien, a partir de esta carrera pondremos
tambien Audio "MarcaTV" en Ac3-5.1
Gracias a zukutru por todos sus esfuerzos en esta carrera
para que podamos disfrutar del audio Ac3-5.1...
ORFHD no emitio en 5.1.
Salu2


RE: F1.GP-Turquia.[2011].[HDTV.720p-DXVA].[MULTI].[Whu-Shu] - juanillooo - 17-05-2011

Muchas gracias, como siempre estupendo trabajo , Esperando a la carrera Big Grin


RE: F1.GP-Turquia.[2011].[HDTV.720p-DXVA].[MULTI].[Whu-Shu] - Pablo - 18-05-2011

Gracias por tu curro Whu, realmente se agradecen acciones altruistas como estas...
la carrera en cuestion fue muy divertida y estoy a la espera de que este lista para su correspondiente descarga.

Salu 2!


RE: F1.GP-Turquia.[2011].[HDTV.720p-DXVA].[MULTI].[Whu-Shu] - Melif1 - 19-05-2011

Gracias Whu-Shu, grandísimo trabajo el tuyo. Preparada para la descarga Wink

Me estoy bajando la calificación y me sale una cosa muy rara....

Me salen dos partes 1, dos partes 2 y dos partes 3 y la parte 10 no me sale Huh

La última pone parte 23.


RE: F1.GP-Turquia.[2011].[HDTV.720p-DXVA].[MULTI].[Whu-Shu] - Whu-Shu - 19-05-2011

Hola Melif1, esas partes que comentas son 3 archivos con extension .rev
Son archivos hechos con WinRar y se utilizan para generar archivos que puedan
fallar, como ese (10) que tantos problemas esta dando para descargarlo...
Tan solo con hacer "Doble Click" sobre el 1 de los .rev y siguiendo los pasos
que el mismo te va diciendo, te genera ese archivo...
Si tienes problemas con el .rev, actualiza el Winrar a su ultima version.

PD: Ya esta subida la carrera
Salu2




RE: F1.GP-Turquia.[2011].[HDTV.720p-DXVA].[MULTI].[Whu-Shu] - aktimel - 19-05-2011

Muchas gracias amigo, esto sí que es HD, y no lo que nos vende las sexta...


RE: F1.GP-Turquia.[2011].[HDTV.720p-DXVA].[MULTI].[Whu-Shu] - Melif1 - 19-05-2011

(19-05-2011, 08:35)Whu-Shu escribió: Hola Melif1, esas partes que comentas son 3 archivos con extension .rev
Son archivos hechos con WinRar y se utilizan para generar archivos que puedan
fallar, como ese (10) que tantos problemas esta dando para descargarlo...
Tan solo con hacer "Doble Click" sobre el 1 de los .rev y siguiendo los pasos
que el mismo te va diciendo, te genera ese archivo...
Si tienes problemas con el .rev, actualiza el Winrar a su ultima version.

PD: Ya esta subida la carrera
Salu2

Gracias , lo probaré cuando acabe de bajarlo. A ver si termino cuando Megaupload le de la gana...Vaya tela , me faltan dos y no hay manera Tongue

Ahora a por la carrera. Gracias.



EDITO: Solucionado lo de la calificación Wink




RE: F1.GP-Turquia.[2011].[HDTV.720p-DXVA].[MULTI].[Whu-Shu] - Whu-Shu - 19-05-2011

Si solo te faltan dos de la clasi y tienes los .rev, se pueden generar con los .rev
Solo hazle doble click sobre el primer .rev y te generara los dos q faltan.
Salu2


RE: F1.GP-Turquia.[2011].[HDTV.720p-DXVA].[MULTI].[Whu-Shu] - Whu-Shu - 15-06-2011

Me han escrito un Email diciendome que tienen fallos en la descompresion de esta carrera.
Si a alguien le pasa, o a tenido problemas con alguna de mis subidas, postearlas en el post
que correspoda.
Cada dia reviso los post con mensajes nuevos y es la forma mas rapida y segura de contactar conmigo.
Salu2 y espero que esteis disfrutando con los GP`s



RE: F1.GP-Turquia.[2011].[HDTV.720p-DXVA].[MULTI].[Whu-Shu] - PAPA33TEAM - 16-06-2011

(15-06-2011, 01:20)Whu-Shu escribió: Me han escrito un Email diciendome que tienen fallos en la descompresion de esta carrera.
Si a alguien le pasa, o a tenido problemas con alguna de mis subidas, postearlas en el post
que correspoda.
Cada dia reviso los post con mensajes nuevos y es la forma mas rapida y segura de contactar conmigo.
Salu2 y espero que esteis disfrutando con los GP`s

Hola WHU-SHU ya esta solucionado con el txt que me enviaste,muchisimas gracias.
Me faltaban por bajar los rar 21-24-26 y 46 no se si es un fallo del archivo dlc o del programa que uso para descargar (el RDESC),pero he vuelto a cargar el .dlc con todos los enlaces y me siguen faltando los .rar que te numero anteriormente.
No se si le habra pasado a alguien mas.
De nuevo muchisimas gracias y si puedo ayudar en algo cuenta conmigo.
Saludos........